<?xml version="1.0" standalone="no"?>
<!DOCTYPE svg PUBLIC "-//W3C//DTD SVG 1.1//EN" "http://www.w3.org/Graphics/SVG/1.1/DTD/svg11.dtd">
<svg xmlns="http://www.w3.org/2000/svg">
<metadata>Generated by Fontastic.me</metadata>
<defs>
<font id="linea" horiz-adv-x="512">
<font-face font-family="linea" units-per-em="512" ascent="480" descent="-32"/>
<missing-glyph horiz-adv-x="512" />

<glyph unicode="&#97;" d="M503 343l-160 160c-8 8-20 11-31 8-5-1-11-4-15-8-3-4-6-9-8-14-7-23-19-43-38-62-25-25-57-43-91-63-36-21-74-43-104-74-26-26-44-55-55-89-3-11 0-23 8-32l160-160c8-8 20-11 31-8 5 1 11 4 15 8 3 4 6 8 8 14 7 23 19 43 38 62 25 25 57 43 91 63 36 21 74 43 104 74 26 26 44 55 55 89 3 11 0 23-8 32z m-311-311c-53 53-107 107-160 160 45 147 243 141 288 288 53-53 107-107 160-160-45-147-243-141-288-288z m121 242c-5 4-10 7-16 8-5 2-10 2-16 2-5 0-10-2-16-4-5-2-10-4-16-7-8 10-17 20-26 29 4 4 8 5 12 6 3 0 7-1 10-2 3 0 7-1 9-2 3 0 6 0 8 2 2 2 4 5 4 8 0 3-1 6-4 9-3 4-7 6-12 7-5 1-10 1-15 0-5-1-10-3-15-6-4-3-8-5-10-8-2 1-3 2-4 3-1 1-2 2-4 2-2 0-3-1-4-3-1-1-2-2-2-4 0-2 1-3 2-4 1-1 2-2 3-3-4-5-7-10-10-16-2-6-4-11-5-17 0-6 0-11 2-15 2-5 5-9 10-13 7-6 16-9 26-8 11 0 22 3 33 10 10-11 19-22 29-32-4-4-8-6-11-6-3-1-6-1-8 0-3 1-5 2-7 3-2 2-4 3-6 4-2 1-5 2-7 2-2 0-4-1-7-3-2-3-4-5-4-8 0-3 2-6 4-9 3-4 7-6 11-8 4-2 9-3 14-4 6 0 11 1 17 3 6 2 12 6 18 12 2-3 5-6 8-8 1-1 3-2 4-2 2 1 4 1 5 3 1 1 1 3 1 4 0 2-1 3-2 4-3 3-5 5-8 7 5 6 8 12 11 19 3 6 5 12 5 17 1 6 0 11-1 15-2 5-5 9-10 13z m-89-11c-5 0-9 1-12 4-2 2-3 4-4 6 0 2 0 4 0 6 0 3 1 5 2 8 1 2 3 5 5 7 8-8 16-17 25-26-7-3-12-5-16-5z m75-32c-1-3-3-5-5-7-9 9-18 19-27 29 2 1 5 2 7 3 3 1 6 2 8 2 3 1 5 1 8 0 3-1 5-2 7-4 3-3 4-5 5-7 0-3 0-6 0-8-1-3-2-6-3-8z m-64-74l0 0c-10-8-19-16-28-25-9-8-17-18-24-27l-11-15 0 0c-2-3-1-7 1-10 4-3 9-3 12 0 0 1 1 1 1 2l10 14c7 8 14 17 22 25 9 9 17 16 27 24l0 0c1 0 1 0 1 0 3 3 3 8 0 12-3 3-7 3-11 0z m59 232c-8-9-17-16-27-24 0 0-1 0-2-1-3-3-3-8 0-11 3-3 8-3 12-1l0 0c10 8 19 16 28 25 9 9 17 18 24 27l11 15 0 0c2 4 2 8-1 11-3 4-8 4-11 0-1 0-1-1-2-2l-10-14c-7-9-14-17-22-25z"/>
<glyph unicode="&#98;" d="M324 301l-32 96-128-96-32 96-137-103 10-12 119 89 32-96 128 96 32-96 122 97 59-88 14 8-69 104z m0-160l-32 96-128-96-32 96-137-103 10-12 119 89 32-96 128 96 32-96 122 97 59-88 14 8-69 104z"/>
<glyph unicode="&#99;" d="M408 512c-84 0-134-97-152-303-18 206-68 303-152 303-68 0-104-39-104-112 0-51 41-92 42-94l12 12c-1 0-38 38-38 82 0 65 29 96 88 96 97 0 144-162 144-496l16 0c0 334 47 496 144 496 59 0 88-31 88-96 0-44-37-82-38-82l12-12c1 2 42 43 42 94 0 73-36 112-104 112z"/>
<glyph unicode="&#100;" d="M35 366l0 0c-21-16-35-41-35-70 0-49 39-88 88-88 49 0 88 39 88 88 0 42-29 76-68 86 35 9 85 18 156 18 116 0 242-78 244-79l8 14c-5 3-131 81-252 81-169 0-227-48-229-50z m125-70c0-40-32-72-72-72-40 0-72 32-72 72 0 40 32 72 72 72 40 0 72-32 72-72z m264 8c-49 0-88-39-88-88 0-42 29-76 68-86-35-9-85-18-156-18-116 0-242 78-244 79l-8-14c5-3 131-81 252-81 169 0 227 48 229 50l0 0c21 16 35 41 35 70 0 49-39 88-88 88z m0-160c-40 0-72 32-72 72 0 40 32 72 72 72 40 0 72-32 72-72 0-40-32-72-72-72z"/>
<glyph unicode="&#101;" d="M384 200c-41 0-83-18-98-65-16 27-14 56-14 57l0 232c0 30-13 88-64 88-26 0-42-15-52-34-2 9-6 17-11 23-7 7-15 11-25 11-55 0-56-40-56-40l16 0c0 2 2 24 40 24 5 0 9-2 13-6 10-11 12-37 12-54-1-4-1-8-1-12l0-232 16 0 0 231c0 1 0 5 1 10 2 20 10 63 47 63 47 0 48-69 48-72l0-231c0-2-3-45 25-80-1-5-1-11-1-17l0-2c1-23-5-42-18-55-15-15-38-23-70-23l0-16c36 0 64 9 82 28 15 16 23 39 22 67l0 1c0 1 0 2 0 2 22-17 51-26 88-26 35 0 64 29 64 64 0 35-29 64-64 64z m0-112c-38 0-67 10-86 30 11 59 62 66 86 66 26 0 48-22 48-48 0-26-22-48-48-48z"/>
<glyph unicode="&#102;" d="M88 104l352 0c41 0 72 31 72 72 0 36-25 75-64 80-4 90-80 160-176 160-85 0-157-53-174-128l-10 0c-48 0-88-44-88-96 0-50 38-88 88-88z m0 168l23 0 1 7c13 70 80 121 160 121 90 0 160-67 160-152l0-8 8 0c33 0 56-34 56-64 0-32-24-56-56-56l-352 0c-41 0-72 31-72 72 0 43 33 80 72 80z"/>
<glyph unicode="&#103;" d="M448 336c-4 90-80 160-176 160-85 0-157-53-174-128l-10 0c-48 0-88-44-88-96 0-50 38-88 88-88l56 0 0 16-56 0c-41 0-72 31-72 72 0 43 33 80 72 80l23 0 1 7c13 70 80 121 160 121 90 0 160-67 160-152l0-8 8 0c33 0 56-34 56-64 0-32-24-56-56-56l-80 0 0-16 80 0c41 0 72 31 72 72 0 36-25 75-64 80z m-120-160c0 58-63 138-66 141l-6 7-6-7c-3-3-74-83-74-141 0-42 34-72 80-72 44 0 72 28 72 72z m-72-56c-31 0-64 18-64 56 0 43 46 103 64 123 15-21 56-80 56-123 0-35-21-56-56-56z"/>
<glyph unicode="&#104;" d="M290 333l-112-152 6-13 39 0-15-95 14-6 112 152-6 13-39 0 15 95z m22-117l-83-113 11 72-8 9-32 0 83 113-11-72 8-9z m136 120c-4 90-80 160-176 160-85 0-157-53-174-128l-10 0c-48 0-88-44-88-96 0-50 38-88 88-88l56 0 0 16-56 0c-41 0-72 31-72 72 0 43 33 80 72 80l23 0 1 7c13 70 80 121 160 121 90 0 160-67 160-152l0-8 8 0c33 0 56-34 56-64 0-32-24-56-56-56l-72 0 0-16 72 0c41 0 72 31 72 72 0 36-25 75-64 80z"/>
<glyph unicode="&#105;" d="M88 184l56 0 0 16-56 0c-41 0-72 31-72 72 0 43 33 80 72 80l23 0 1 7c13 70 80 121 160 121 90 0 160-67 160-152l0-8 8 0c33 0 56-34 56-64 0-32-24-56-56-56l-72 0 0-16 72 0c41 0 72 31 72 72 0 36-25 75-64 80-4 90-80 160-176 160-85 0-157-53-174-128l-10 0c-48 0-88-44-88-96 0-50 38-88 88-88z m87-20l13 20 52 0 0 16-52 0-13 20-14-8 13-20-13-20z m162 56l-13-20-52 0 0-16 52 0 13-20 14 8-13 20 13 20z m-81-110l20-13 8 14-20 13 0 52-16 0 0-52-20-13 8-14z m0 164l-20 13-8-14 20-13 0-52 16 0 0 52 20 13-8 14z m-53-1l-5-23-23-5 3-16 24 5 32-32 12 12-32 32 5 24z m106-162l5 23 23 5-3 16-24-5-32 32-12-12 32-32-5-24z m-75 71l-32-32-24 5-3-16 23-5 5-23 16 3-5 24 32 32z m44 20l32 32 24-5 3 16-23 5-5 23-16-3 5-24-32-32z"/>
<glyph unicode="&#106;" d="M456 287c-4 81-78 145-168 145-33 0-64-9-89-25-21 26-53 41-87 41-62 0-112-50-112-112 0-21 6-42 18-60 6-11 15-20 25-28-2-8-3-16-3-24 0-46 34-80 80-80l328 0c38 0 64 26 64 64 0 36-22 74-56 79z m-425-3c-10 16-15 34-15 52 0 53 43 96 96 96 29 0 55-13 74-34-28-22-48-51-56-86l-10 0c-31 0-58-20-71-48-7 6-13 13-18 20z m417-124l-328 0c-38 0-64 26-64 64 0 40 29 72 64 72l23 0 1 7c12 65 73 113 144 113 84 0 152-61 152-136l0-8 8 0c28 0 48-34 48-64 0-29-19-48-48-48z m-359-140l64 112 14-8-64-112z m80 0l64 112 14-8-64-112z m80 0l64 112 14-8-64-112z m80 0l64 112 14-8-64-112z"/>
<glyph unicode="&#107;" d="M18 276c6-11 15-20 25-28-2-8-3-16-3-24 0-46 34-80 80-80l328 0c38 0 64 26 64 64 0 36-22 74-56 79-4 81-78 145-168 145-33 0-64-9-89-25-21 26-53 41-87 41-7 0-14-1-21-2l-11-2 6-10c7-10 10-22 10-34 0-36-29-64-64-64-7 0-14 1-21 3l-11 4 0-12c1-20 7-39 18-55z m422 4l0-8 8 0c28 0 48-34 48-64 0-29-19-48-48-48l-328 0c-38 0-64 26-64 64 0 40 29 72 64 72l23 0 1 7c12 65 73 113 144 113 84 0 152-61 152-136z m-408 40c44 0 80 35 80 80 0 11-2 22-7 32 2 0 5 0 7 0 29 0 55-13 74-34-28-22-48-51-56-86l-10 0c-31 0-58-20-71-48-7 6-13 13-18 20-7 11-12 24-14 37 5-1 10-1 15-1z m135-196l-64-112-14 8 64 112z m80 0l-64-112-14 8 64 112z m80 0l-64-112-14 8 64 112z m80 0l-64-112-14 8 64 112z"/>
<glyph unicode="&#108;" d="M456 287c-4 81-78 145-168 145-16 0-31-2-45-6-20 14-43 22-67 22-62 0-112-50-112-112 0-17 4-29 10-40-21-16-34-42-34-72 0-46 34-80 80-80l328 0c38 0 64 26 64 64 0 36-22 74-56 79z m-376 49c0 53 43 96 96 96 17 0 33-4 48-13-47-19-83-58-94-107l-10 0c-12 0-22-3-32-8-6 10-8 19-8 32z m368-176l-328 0c-38 0-64 26-64 64 0 40 29 72 64 72l23 0 1 7c12 65 73 113 144 113 84 0 152-61 152-136l0-8 8 0c28 0 48-34 48-64 0-29-19-48-48-48z m-448 184l48 0 0-16-48 0z m168 168l16 0 0-48-16 0z m-130-26l48-48-12-12-48 48z m115-354l14-8-64-112-14 8z m16-112l64 112 14-8-64-112z m80 0l64 112 14-8-64-112z m80 0l64 112 14-8-64-112z"/>
<glyph unicode="&#109;" d="M256 0c97 0 176 82 176 182 0 126-163 319-170 327l-6 7-6-7c-7-8-171-201-170-327 0-100 79-182 176-182z m0 491c30-36 160-202 160-309 0-92-72-166-160-166-88 0-160 74-160 166 0 107 130 273 160 309z"/>
<glyph unicode="&#110;" d="M256 0c141 0 256 115 256 256 0 141-115 256-256 256-141 0-256-115-256-256 0-141 115-256 256-256z m-240 256c0 5 0 11 1 16l231 0 0-32-231 0c-1 5-1 11-1 16z m232-240c-27 1-54 7-78 16l78 0z m0 464l-78 0c24 9 51 15 78 16z m0-16l0-32-155 0c13 12 28 23 43 32z m0-48l0-32-195 0c7 11 15 22 24 32z m0-48l0-32-218 0c4 11 8 22 14 32z m0-48l0-32-230 0c2 11 4 22 7 32z m0-96l0-32-223 0c-3 10-5 21-7 32z m0-48l0-32-204 0c-6 10-10 21-14 32z m0-48l0-32-171 0c-9 10-17 21-24 32z m0-48l0-32-112 0c-15 9-30 20-43 32z m248 176c0-130-103-236-232-240l0 480c129-4 232-110 232-240z"/>
<glyph unicode="&#111;" d="M448 336c-4 90-80 160-176 160-85 0-157-53-174-128l-10 0c-48 0-88-44-88-96 0-50 38-88 88-88l0 16c-41 0-72 31-72 72 0 43 33 80 72 80l23 0 1 7c13 70 80 121 160 121 90 0 160-67 160-152l0-8 8 0c33 0 56-34 56-64 0-32-24-56-56-56l0-16c41 0 72 31 72 72 0 36-25 75-64 80z m-344-136l320 0 0-16-320 0z m0-64l320 0 0-16-320 0z m0-64l320 0 0-16-320 0z"/>
<glyph unicode="&#112;" d="M43 248c-2-8-3-16-3-24 0-46 34-80 80-80l0 16c-38 0-64 26-64 64 0 40 29 72 64 72l23 0 1 7c12 65 73 113 144 113 84 0 152-61 152-136l0-8 8 0c28 0 48-34 48-64 0-29-19-48-48-48l0-16c38 0 64 26 64 64 0 36-22 74-56 79-4 81-78 145-168 145-33 0-64-9-89-25-21 26-53 41-87 41-62 0-112-50-112-112 0-21 6-42 18-60 6-11 15-20 25-28z m69 184c29 0 55-13 74-34-28-22-48-51-56-86l-10 0c-31 0-58-20-71-48-7 6-13 13-18 20-10 16-15 34-15 52 0 53 43 96 96 96z m24-272l296 0 0-16-296 0z m0-48l296 0 0-16-296 0z m0-48l296 0 0-16-296 0z"/>
<glyph unicode="&#113;" d="M456 287c-4 81-78 145-168 145-33 0-64-9-89-25-21 26-53 41-87 41-7 0-14-1-21-2l-11-2 6-10c7-10 10-22 10-34 0-36-29-64-64-64-7 0-14 1-21 3l-11 4 0-12c1-20 7-39 18-55 6-11 15-20 25-28-2-8-3-16-3-24 0-46 34-80 80-80l0 16c-38 0-64 26-64 64 0 40 29 72 64 72l23 0 1 7c12 65 73 113 144 113 84 0 152-61 152-136l0-8 8 0c28 0 48-34 48-64 0-29-19-48-48-48l0-16c38 0 64 26 64 64 0 36-22 74-56 79z m-326 25l-10 0c-31 0-58-20-71-48-7 6-13 13-18 20-7 11-12 24-14 37 5-1 10-1 15-1 44 0 80 35 80 80 0 11-2 22-7 32 2 0 5 0 7 0 29 0 55-13 74-34-28-22-48-51-56-86z m6-152l296 0 0-16-296 0z m0-48l296 0 0-16-296 0z m0-48l296 0 0-16-296 0z"/>
<glyph unicode="&#114;" d="M456 287c-4 81-78 145-168 145-16 0-31-2-45-6-20 14-43 22-67 22-62 0-112-50-112-112 0-17 4-29 10-40-21-16-34-42-34-72 0-46 34-80 80-80l0 16c-38 0-64 26-64 64 0 40 29 72 64 72l23 0 1 7c12 65 73 113 144 113 84 0 152-61 152-136l0-8 8 0c28 0 48-34 48-64 0-29-19-48-48-48l0-16c38 0 64 26 64 64 0 36-22 74-56 79z m-326 25l-10 0c-12 0-22-3-32-8-6 10-8 19-8 32 0 53 43 96 96 96 17 0 33-4 48-13-47-19-83-58-94-107z m-130 32l48 0 0-16-48 0z m168 168l16 0 0-48-16 0z m-130-26l48-48-12-12-48 48z m98-326l296 0 0-16-296 0z m0-48l296 0 0-16-296 0z m0-48l296 0 0-16-296 0z"/>
<glyph unicode="&#115;" d="M256 512c-141 0-256-115-256-256 0-141 115-256 256-256 141 0 256 115 256 256 0 141-115 256-256 256z m0-496c-132 0-240 108-240 240 0 132 108 240 240 240 132 0 240-108 240-240 0-132-108-240-240-240z"/>
<glyph unicode="&#116;" d="M514 440l-4 16c-1-1-128-32-254-32-125 0-253 31-254 32l-4-16c1 0 73-18 162-27l0-314c-89-9-161-27-162-27l4-16c1 1 128 32 254 32 125 0 253-31 254-32l4 16c-1 0-73 18-162 27l0 314c89 9 161 27 162 27z m-178-340c-26 3-53 4-80 4-27 0-54-1-80-4l0 312c26-3 53-4 80-4 27 0 54 1 80 4z"/>
<glyph unicode="&#117;" d="M448 336c-4 90-80 160-176 160-85 0-157-53-174-128l-10 0c-48 0-88-44-88-96 0-50 38-88 88-88l352 0c41 0 72 31 72 72 0 36-25 75-64 80z m-8-136l-352 0c-41 0-72 31-72 72 0 43 33 80 72 80l23 0 1 7c13 70 80 121 160 121 90 0 160-67 160-152l0-8 8 0c33 0 56-34 56-64 0-32-24-56-56-56z m-295-133l40 88 14-6-40-88z m-80 0l40 88 14-6-40-88z m160 0l40 88 14-6-40-88z m80 0l40 88 14-6-40-88z m120 88l14-6-40-88-14 6z m-304-127l8 16 14-8-8-16z m-80 0l8 16 14-8-8-16z m160 0l8 16 14-8-8-16z m80 0l8 16 14-8-8-16z m80 0l8 16 14-8-8-16z"/>
<glyph unicode="&#118;" d="M456 287c-4 81-78 145-168 145-33 0-64-9-89-25-21 26-53 41-87 41-62 0-112-50-112-112 0-21 6-42 18-60 6-11 15-20 25-28-2-8-3-16-3-24 0-46 34-80 80-80l328 0c38 0 64 26 64 64 0 36-22 74-56 79z m-425-3c-10 16-15 34-15 52 0 53 43 96 96 96 29 0 55-13 74-34-28-22-48-51-56-86l-10 0c-31 0-58-20-71-48-7 6-13 13-18 20z m417-124l-328 0c-38 0-64 26-64 64 0 40 29 72 64 72l23 0 1 7c12 65 73 113 144 113 84 0 152-61 152-136l0-8 8 0c28 0 48-34 48-64 0-29-19-48-48-48z m-295-29l14-6-32-72-14 6z m80 0l14-6-32-72-14 6z m80 0l14-6-32-72-14 6z m80 0l14-6-32-72-14 6z m-274-119l-14 8 8 16 14-8z m80 0l-14 8 8 16 14-8z m80 0l-14 8 8 16 14-8z m80 0l-14 8 8 16 14-8z"/>
<glyph unicode="&#119;" d="M456 287c-4 81-78 145-168 145-33 0-64-9-89-25-21 26-53 41-87 41-7 0-14-1-21-2l-11-2 6-10c7-10 10-22 10-34 0-36-29-64-64-64-7 0-14 1-21 3l-11 4 0-12c1-20 7-39 18-55 6-11 15-20 25-28-2-8-3-16-3-24 0-46 34-80 80-80l328 0c38 0 64 26 64 64 0 36-22 74-56 79z m-425-3c-7 11-12 24-14 37 5-1 10-1 15-1 44 0 80 35 80 80 0 11-2 22-7 32 2 0 5 0 7 0 29 0 55-13 74-34-28-22-48-51-56-86l-10 0c-31 0-58-20-71-48-7 6-13 13-18 20z m417-124l-328 0c-38 0-64 26-64 64 0 40 29 72 64 72l23 0 1 7c12 65 73 113 144 113 84 0 152-61 152-136l0-8 8 0c28 0 48-34 48-64 0-29-19-48-48-48z m-295-29l14-6-32-72-14 6z m80 0l14-6-32-72-14 6z m80 0l14-6-32-72-14 6z m80 0l14-6-32-72-14 6z m-274-119l-14 8 8 16 14-8z m80 0l-14 8 8 16 14-8z m80 0l-14 8 8 16 14-8z m80 0l-14 8 8 16 14-8z"/>
<glyph unicode="&#120;" d="M456 287c-4 81-78 145-168 145-16 0-31-2-45-6-20 14-43 22-67 22-62 0-112-50-112-112 0-17 4-29 10-40-21-16-34-42-34-72 0-46 34-80 80-80l328 0c38 0 64 26 64 64 0 36-22 74-56 79z m-376 49c0 53 43 96 96 96 17 0 33-4 48-13-47-19-83-58-94-107l-10 0c-12 0-22-3-32-8-6 10-8 19-8 32z m368-176l-328 0c-38 0-64 26-64 64 0 40 29 72 64 72l23 0 1 7c12 65 73 113 144 113 84 0 152-61 152-136l0-8 8 0c28 0 48-34 48-64 0-29-19-48-48-48z m-448 184l48 0 0-16-48 0z m168 168l16 0 0-48-16 0z m-130-26l48-48-12-12-48 48z m115-355l14-6-32-72-14 6z m80 0l14-6-32-72-14 6z m80 0l14-6-32-72-14 6z m80 0l14-6-32-72-14 6z m-274-119l-14 8 8 16 14-8z m80 0l-14 8 8 16 14-8z m80 0l-14 8 8 16 14-8z m80 0l-14 8 8 16 14-8z"/>
<glyph unicode="&#121;" d="M256 512c-141 0-256-115-256-256 0-141 115-256 256-256 141 0 256 115 256 256 0 141-115 256-256 256z m240-256c0-5 0-11-1-16l-231 0 0 32 231 0c1-5 1-11 1-16z m-232 240c27-1 54-7 78-16l-78 0z m0-464l78 0c-24-9-51-15-78-16z m0 16l0 32 155 0c-13-12-28-23-44-32z m0 48l0 32 195 0c-7-11-15-22-24-32z m0 48l0 32 218 0c-4-11-8-22-14-32z m0 48l0 32 230 0c-2-11-4-22-7-32z m0 96l0 32 223 0c3-10 5-21 7-32z m0 48l0 32 204 0c6-10 10-21 14-32z m0 48l0 32 171 0c9-10 17-21 24-32z m0 48l0 32 112 0c15-9 30-20 43-32z m-248-176c0 130 103 236 232 240l0-480c-129 4-232 110-232 240z"/>
<glyph unicode="&#122;" d="M360 16c-35 0-64 29-64 64 0 61 83 208 84 209 41 71 17 161-53 203-34 20-74 25-112 15-39-10-71-34-91-68-35-61-22-137 27-183-44-1-79-36-79-80 0-44 36-80 80-80 44 0 80 36 80 80 0 32-20 60-47 73l0 1c-63 37-84 118-47 181 18 30 47 52 81 61 34 9 69 4 100-14 63-37 84-118 47-181-4-6-86-152-86-217 0-44 36-80 80-80 31 0 58 17 72 44l-15 8c-11-22-33-36-57-36z m-144 160c0-35-29-64-64-64-35 0-64 29-64 64 0 35 29 64 64 64 35 0 64-29 64-64z"/>
<glyph unicode="&#65;" d="M393 311c0 76-62 137-137 137-75 0-137-61-137-137 0-36 14-70 39-95l-158 0 0-16 184 0 0 16-2 0c-30 23-47 58-47 95 0 67 54 121 121 121 67 0 121-54 121-121 0-37-17-72-47-95l-2 0 0-16 184 0 0 16-158 0c25 25 39 59 39 95z m-393-231l512 0 0-16-512 0z"/>
<glyph unicode="&#66;" d="M238 208l-54-198 14-7 208 288-6 13-103 0 31 199-15 5-184-288 7-12z m68 260l-26-171 8-9 96 0-173-240 45 166-8 10-97 0z"/>
<glyph unicode="&#67;" d="M448 336c-4 90-80 160-176 160-85 0-157-53-174-128l-10 0c-48 0-88-44-88-96 0-50 38-88 88-88l352 0c41 0 72 31 72 72 0 36-25 75-64 80z m-8-136l-352 0c-41 0-72 31-72 72 0 43 33 80 72 80l23 0 1 7c13 70 80 121 160 121 90 0 160-67 160-152l0-8 8 0c33 0 56-34 56-64 0-32-24-56-56-56z m-305-180l-14 8 8 16 14-8z m-80 0l-14 8 8 16 14-8z m160 0l-14 8 8 16 14-8z m80 0l-14 8 8 16 14-8z m80 0l-14 8 8 16 14-8z m-198 64l8 16 14-8-8-16z m-72 16l14-8-8-16-14 8z m152-16l8 16 14-8-8-16z m80 0l8 16 14-8-8-16z m80 0l8 16 14-8-8-16z m-272 80l14-8-8-16-14 8z m-80 0l14-8-8-16-14 8z m160 0l14-8-8-16-14 8z m80 0l14-8-8-16-14 8z m80 0l14-8-8-16-14 8z"/>
<glyph unicode="&#68;" d="M456 287c-4 81-78 145-168 145-33 0-64-9-89-25-21 26-53 41-87 41-62 0-112-50-112-112 0-21 6-42 18-60 6-11 15-20 25-28-2-8-3-16-3-24 0-46 34-80 80-80l328 0c38 0 64 26 64 64 0 36-22 74-56 79z m-425-3c-10 16-15 34-15 52 0 53 43 96 96 96 29 0 55-13 74-34-28-22-48-51-56-86l-10 0c-31 0-58-20-71-48-7 6-13 13-18 20z m417-124l-328 0c-38 0-64 26-64 64 0 40 29 72 64 72l23 0 1 7c12 65 73 113 144 113 84 0 152-61 152-136l0-8 8 0c28 0 48-34 48-64 0-29-19-48-48-48z m-335-124l14-8-8-16-14 8z m80 0l14-8-8-16-14 8z m72-16l8 16 14-8-8-16z m80 0l8 16 14-8-8-16z m-194 88l-14 8 8 16 14-8z m80 0l-14 8 8 16 14-8z m80 0l-14 8 8 16 14-8z m66 8l8 16 14-8-8-16z m-304-48l8 16 14-8-8-16z m88 16l14-8-8-16-14 8z m80 0l14-8-8-16-14 8z m80 0l14-8-8-16-14 8z"/>
<glyph unicode="&#69;" d="M456 287c-4 81-78 145-168 145-33 0-64-9-89-25-21 26-53 41-87 41-7 0-14-1-21-2l-11-2 6-10c7-10 10-22 10-34 0-36-29-64-64-64-7 0-14 1-21 3l-11 4 0-12c1-20 7-39 18-55 6-11 15-20 25-28-2-8-3-16-3-24 0-46 34-80 80-80l328 0c38 0 64 26 64 64 0 36-22 74-56 79z m-425-3c-7 11-12 24-14 37 5-1 10-1 15-1 44 0 80 35 80 80 0 11-2 22-7 32 2 0 5 0 7 0 29 0 55-13 74-34-28-22-48-51-56-86l-10 0c-31 0-58-20-71-48-7 6-13 13-18 20z m417-124l-328 0c-38 0-64 26-64 64 0 40 29 72 64 72l23 0 1 7c12 65 73 113 144 113 84 0 152-61 152-136l0-8 8 0c28 0 48-34 48-64 0-29-19-48-48-48z m-335-124l14-8-8-16-14 8z m80 0l14-8-8-16-14 8z m72-16l8 16 14-8-8-16z m80 0l8 16 14-8-8-16z m-194 88l-14 8 8 16 14-8z m80 0l-14 8 8 16 14-8z m80 0l-14 8 8 16 14-8z m66 8l8 16 14-8-8-16z m-296-32l14-8-8-16-14 8z m80 0l14-8-8-16-14 8z m80 0l14-8-8-16-14 8z m80 0l14-8-8-16-14 8z"/>
<glyph unicode="&#70;" d="M456 287c-4 81-78 145-168 145-16 0-31-2-45-6-20 14-43 22-67 22-62 0-112-50-112-112 0-17 4-29 10-40-21-16-34-42-34-72 0-46 34-80 80-80l328 0c38 0 64 26 64 64 0 36-22 74-56 79z m-376 49c0 53 43 96 96 96 17 0 33-4 48-13-47-19-83-58-94-107l-10 0c-12 0-22-3-32-8-6 10-8 19-8 32z m368-176l-328 0c-38 0-64 26-64 64 0 40 29 72 64 72l23 0 1 7c12 65 73 113 144 113 84 0 152-61 152-136l0-8 8 0c28 0 48-34 48-64 0-29-19-48-48-48z m-448 184l48 0 0-16-48 0z m168 168l16 0 0-48-16 0z m-130-26l48-48-12-12-48 48z m67-466l8 16 14-8-8-16z m80 0l8 16 14-8-8-16z m80 0l8 16 14-8-8-16z m80 0l8 16 14-8-8-16z m-194 88l-14 8 8 16 14-8z m80 0l-14 8 8 16 14-8z m80 0l-14 8 8 16 14-8z m66 8l8 16 14-8-8-16z m-296-32l14-8-8-16-14 8z m86-24l-14 8 8 16 14-8z m74 24l14-8-8-16-14 8z m80 0l14-8-8-16-14 8z"/>
<glyph unicode="&#71;" d="M232 0c141 0 256 115 256 256 0 141-115 256-256 256-33 0-72-6-99-17l-16-6 15-8c71-37 116-107 116-177 0-110-90-200-200-200l-6 0-20 0 12-13c48-57 122-91 198-91z m32 304c0 71-42 140-108 182 23 6 51 10 76 10 132 0 240-108 240-240 0-132-108-240-240-240-65 0-129 27-174 72 114 5 206 100 206 216z"/>
<glyph unicode="&#72;" d="M0 128l512 0 0 16-113 0c11 22 17 47 17 72 0 88-72 160-160 160-88 0-160-72-160-160 0-25 6-50 17-72l-113 0z m112 88c0 79 65 144 144 144 79 0 144-65 144-144 0-25-7-50-19-72l-250 0c-12 22-19 47-19 72z m94-122l-12-13 56-57 12 0 56 57-12 12-50-50z"/>
<glyph unicode="&#73;" d="M512 144l-113 0c11 22 17 47 17 72 0 88-72 160-160 160 0 0-1 0-2 0l-12 0 5-11c6-13 9-27 9-41 0-55-45-100-100-100-17 0-33 4-48 12l-10 6-1-12c-1-5-1-9-1-14 0-25 6-50 17-72l-113 0 0-16 512 0z m-400 72c0 0 0 0 0 1 14-6 29-9 44-9 64 0 116 52 116 116 0 12-2 24-6 36 75-6 134-68 134-144 0-25-7-50-19-72l-250 0c-12 22-19 47-19 72z m94-122l-12-13 56-57 12 0 56 57-12 12-50-50z"/>
<glyph unicode="&#74;" d="M512 144l-113 0c11 22 17 47 17 72 0 88-72 160-160 160-88 0-160-72-160-160 0-25 6-50 17-72l-113 0 0-16 512 0z m-400 72c0 79 65 144 144 144 79 0 144-65 144-144 0-25-7-50-19-72l-250 0c-12 22-19 47-19 72z m82-177l12-12 50 50 50-51 12 13-56 57-12 0z"/>
<glyph unicode="&#75;" d="M416 216c0 88-72 160-160 160 0 0-1 0-2 0l-12 0 5-11c6-13 9-27 9-41 0-55-45-100-100-100-17 0-33 4-48 12l-10 6-1-12c-1-4-1-9-1-14 0-25 6-50 17-72l-113 0 0-16 512 0 0 16-113 0c11 22 17 47 17 72z m-304 0c0 0 0 0 0 1 14-6 29-9 44-9 64 0 116 52 116 116 0 12-2 24-6 36 75-6 134-68 134-144 0-25-7-50-19-72l-250 0c-12 22-19 47-19 72z m194-190l12 13-56 57-12 0-56-57 12-12 50 50z"/>
<glyph unicode="&#76;" d="M256 0c141 0 256 115 256 256 0 141-115 256-256 256-141 0-256-115-256-256 0-141 115-256 256-256z m-240 256c0 5 0 11 1 16l231 0 0-32-231 0c-1 5-1 11-1 16z m232-240c-27 1-54 7-78 16l78 0z m0 464l-78 0c24 9 51 15 78 16z m0-16l0-32-155 0c13 12 28 23 43 32z m0-48l0-32-195 0c7 11 15 22 24 32z m0-48l0-32-218 0c4 11 8 22 14 32z m0-48l0-32-230 0c2 11 4 22 7 32z m0-96l0-32-223 0c-3 10-5 21-7 32z m0-48l0-32-204 0c-6 10-10 21-14 32z m0-48l0-32-171 0c-9 10-17 21-24 32z m0-48l0-32-112 0c-15 9-30 20-43 32z m248 176c0-130-103-236-232-240l0 480c129-4 232-110 232-240z"/>
<glyph unicode="&#77;" d="M256 512c-141 0-256-115-256-256 0-141 115-256 256-256 141 0 256 115 256 256 0 141-115 256-256 256z m240-256c0-5 0-11-1-16l-478 0c-1 5-1 11-1 16 0 5 0 11 1 16l478 0c1-5 1-11 1-16z m-403-176l326 0c-13-12-28-23-44-32l-239 0c-15 9-30 20-43 32z m-16 16c-9 10-17 21-24 32l406 0c-7-11-15-22-24-32z m-33 48c-6 10-10 21-14 32l452 0c-4-11-8-22-14-32z m-19 48c-3 10-5 21-7 32l476 0c-2-11-4-22-7-32z m-7 96c2 11 4 22 7 32l462 0c3-10 5-21 7-32z m12 48c4 11 8 22 14 32l424 0c6-10 10-21 14-32z m23 48c7 11 15 22 24 32l358 0c9-10 17-21 24-32z m40 48c13 12 28 23 43 32l239 0c16-9 31-20 44-32z m249 48l-172 0c27 10 56 16 86 16 30 0 59-6 86-16z m-172-448l172 0c-27-10-56-16-86-16-30 0-59 6-86 16z"/>
<glyph unicode="&#78;" d="M439 508l-14 8c-3-5-78-126-81-252l-176 0c-3 126-78 247-81 252l-14-8c1-1 76-122 79-244l-96 0 0-16 96 0c-3-122-78-243-79-244l14-8c3 5 78 126 81 252l176 0c3-126 78-247 81-252l14 8c-1 1-76 122-79 244l96 0 0 16-96 0c3 122 78 243 79 244z"/>
<glyph unicode="&#79;" d="M88 184l352 0c41 0 72 31 72 72 0 36-25 75-64 80-4 90-80 160-176 160-85 0-157-53-174-128l-10 0c-48 0-88-44-88-96 0-50 38-88 88-88z m0 168l23 0 1 7c13 70 80 121 160 121 90 0 160-67 160-152l0-8 8 0c33 0 56-34 56-64 0-32-24-56-56-56l-352 0c-41 0-72 31-72 72 0 43 33 80 72 80z m80-208l16 0 0-112-16 0z m-80 0l16 0 0-112-16 0z m160 0l16 0 0-112-16 0z m80 0l16 0 0-112-16 0z m80 0l16 0 0-112-16 0z"/>
<glyph unicode="&#80;" d="M43 248c-2-8-3-16-3-24 0-46 34-80 80-80l328 0c38 0 64 26 64 64 0 36-22 74-56 79-4 81-78 145-168 145-33 0-64-9-89-25-21 26-53 41-87 41-62 0-112-50-112-112 0-21 6-42 18-60 6-11 15-20 25-28z m397 32l0-8 8 0c28 0 48-34 48-64 0-29-19-48-48-48l-328 0c-38 0-64 26-64 64 0 40 29 72 64 72l23 0 1 7c12 65 73 113 144 113 84 0 152-61 152-136z m-328 152c29 0 55-13 74-34-28-22-48-51-56-86l-10 0c-31 0-58-20-71-48-7 6-13 13-18 20-10 16-15 34-15 52 0 53 43 96 96 96z m40-304l16 0 0-112-16 0z m80 0l16 0 0-112-16 0z m80 0l16 0 0-112-16 0z m80 0l16 0 0-112-16 0z"/>
<glyph unicode="&#81;" d="M456 287c-4 81-78 145-168 145-33 0-64-9-89-25-21 26-53 41-87 41-7 0-14-1-21-2l-11-2 6-10c7-10 10-22 10-34 0-36-29-64-64-64-7 0-14 1-21 3l-11 4 0-12c1-20 7-39 18-55 6-11 15-20 25-28-2-8-3-16-3-24 0-46 34-80 80-80l328 0c38 0 64 26 64 64 0 36-22 74-56 79z m-425-3c-7 11-12 24-14 37 5-1 10-1 15-1 44 0 80 35 80 80 0 11-2 22-7 32 2 0 5 0 7 0 29 0 55-13 74-34-28-22-48-51-56-86l-10 0c-31 0-58-20-71-48-7 6-13 13-18 20z m417-124l-328 0c-38 0-64 26-64 64 0 40 29 72 64 72l23 0 1 7c12 65 73 113 144 113 84 0 152-61 152-136l0-8 8 0c28 0 48-34 48-64 0-29-19-48-48-48z m-296-32l16 0 0-112-16 0z m80 0l16 0 0-112-16 0z m80 0l16 0 0-112-16 0z m80 0l16 0 0-112-16 0z"/>
<glyph unicode="&#82;" d="M456 287c-4 81-78 145-168 145-16 0-31-2-45-6-20 14-43 22-67 22-62 0-112-50-112-112 0-17 4-29 10-40-21-16-34-42-34-72 0-46 34-80 80-80l328 0c38 0 64 26 64 64 0 36-22 74-56 79z m-376 49c0 53 43 96 96 96 17 0 33-4 48-13-47-19-83-58-94-107l-10 0c-12 0-22-3-32-8-6 10-8 19-8 32z m368-176l-328 0c-38 0-64 26-64 64 0 40 29 72 64 72l23 0 1 7c12 65 73 113 144 113 84 0 152-61 152-136l0-8 8 0c28 0 48-34 48-64 0-29-19-48-48-48z m-448 184l48 0 0-16-48 0z m168 168l16 0 0-48-16 0z m-130-26l48-48-12-12-48 48z m114-358l16 0 0-112-16 0z m80 0l16 0 0-112-16 0z m80 0l16 0 0-112-16 0z m80 0l16 0 0-112-16 0z"/>
<glyph unicode="&#83;" d="M288 496l197 0-337-337-134 135-12-12 135-134-143-142 12-12 142 143 134-135 12 12-135 134 337 337 0-197 16 0 0 224-224 0z"/>
<glyph unicode="&#84;" d="M410 82l27-26-21 0c-39 0-40 36-40 40l0 320c0 33-15 96-72 96-35 0-55-24-64-51-10 27-29 51-64 51-36 0-55-26-65-53-9 24-28 45-63 45l0-16c55 0 56-69 56-72l0-320 16 0 0 320c0 3 1 80 56 80 55 0 56-77 56-80l0-320 16 0 0 320c0 3 1 80 56 80 55 0 56-77 56-80l0-320c0-19 12-56 56-56l21 0-27-26 13-12 41 40 0 12-41 40z"/>
<glyph unicode="&#85;" d="M88 184l352 0c41 0 72 31 72 72 0 36-25 75-64 80-4 90-80 160-176 160-85 0-157-53-174-128l-10 0c-48 0-88-44-88-96 0-50 38-88 88-88z m0 168l23 0 1 7c13 70 80 121 160 121 90 0 160-67 160-152l0-8 8 0c33 0 56-34 56-64 0-32-24-56-56-56l-352 0c-41 0-72 31-72 72 0 43 33 80 72 80z m80-184l16 0 0-40-16 0z m0-72l16 0 0-40-16 0z m42 62l12-12-24-24-12 12z m-56-56l12-12-24-24-12 12z m68-24l-12-12-24 24 12 12z m-92 68l12 12 24-24-12-12z m62-26l40 0 0-16-40 0z m-72 0l40 0 0-16-40 0z m208 8l16 0 0-40-16 0z m0-72l16 0 0-40-16 0z m42 62l12-12-24-24-12 12z m-56-56l12-12-24-24-12 12z m68-24l-12-12-24 24 12 12z m-92 68l12 12 24-24-12-12z m62-26l40 0 0-16-40 0z m-72 0l40 0 0-16-40 0z"/>
<glyph unicode="&#86;" d="M43 248c-2-8-3-16-3-24 0-46 34-80 80-80l328 0c38 0 64 26 64 64 0 36-22 74-56 79-4 81-78 145-168 145-33 0-64-9-89-25-21 26-53 41-87 41-62 0-112-50-112-112 0-21 6-42 18-60 6-11 15-20 25-28z m397 32l0-8 8 0c28 0 48-34 48-64 0-29-19-48-48-48l-328 0c-38 0-64 26-64 64 0 40 29 72 64 72l23 0 1 7c12 65 73 113 144 113 84 0 152-61 152-136z m-328 152c29 0 55-13 74-34-28-22-48-51-56-86l-10 0c-31 0-58-20-71-48-7 6-13 13-18 20-10 16-15 34-15 52 0 53 43 96 96 96z m72-304l16 0 0-32-16 0z m0-64l16 0 0-32-16 0z m34 54l12-12-16-16-12 12z m-48-48l12-12-16-16-12 12z m60-16l-12-12-16 16 12 12z m-76 52l12 12 16-16-12-12z m54-18l32 0 0-16-32 0z m-64 0l32 0 0-16-32 0z m200 24l16 0 0-32-16 0z m0-64l16 0 0-32-16 0z m34 54l12-12-16-16-12 12z m-48-48l12-12-16-16-12 12z m60-16l-12-12-16 16 12 12z m-76 52l12 12 16-16-12-12z m54-18l32 0 0-16-32 0z m-64 0l32 0 0-16-32 0z"/>
<glyph unicode="&#87;" d="M456 287c-4 81-78 145-168 145-33 0-64-9-89-25-21 26-53 41-87 41-7 0-14-1-21-2l-11-2 6-10c7-10 10-22 10-34 0-36-29-64-64-64-7 0-14 1-21 3l-11 4 0-12c1-20 7-39 18-55 6-11 15-20 25-28-2-8-3-16-3-24 0-46 34-80 80-80l328 0c38 0 64 26 64 64 0 36-22 74-56 79z m-425-3c-7 11-12 24-14 37 5-1 10-1 15-1 44 0 80 35 80 80 0 11-2 22-7 32 2 0 5 0 7 0 29 0 55-13 74-34-28-22-48-51-56-86l-10 0c-31 0-58-20-71-48-7 6-13 13-18 20z m417-124l-328 0c-38 0-64 26-64 64 0 40 29 72 64 72l23 0 1 7c12 65 73 113 144 113 84 0 152-61 152-136l0-8 8 0c28 0 48-34 48-64 0-29-19-48-48-48z m-264-32l16 0 0-32-16 0z m0-64l16 0 0-32-16 0z m30 26l-12 12 16 16 12-12z m-48-48l-12 12 16 16 12-12z m64 12l-12-12-16 16 12 12z m-76 52l12 12 16-16-12-12z m54-18l32 0 0-16-32 0z m-64 0l32 0 0-16-32 0z m200 24l16 0 0-32-16 0z m0-64l16 0 0-32-16 0z m30 26l-12 12 16 16 12-12z m-48-48l-12 12 16 16 12-12z m64 12l-12-12-16 16 12 12z m-76 52l12 12 16-16-12-12z m54-18l32 0 0-16-32 0z m-64 0l32 0 0-16-32 0z"/>
<glyph unicode="&#88;" d="M456 287c-4 81-78 145-168 145-16 0-31-2-45-6-20 14-43 22-67 22-62 0-112-50-112-112 0-17 4-29 10-40-21-16-34-42-34-72 0-46 34-80 80-80l328 0c38 0 64 26 64 64 0 36-22 74-56 79z m-376 49c0 53 43 96 96 96 17 0 33-4 48-13-47-19-83-58-94-107l-10 0c-12 0-22-3-32-8-6 10-8 19-8 32z m368-176l-328 0c-38 0-64 26-64 64 0 40 29 72 64 72l23 0 1 7c12 65 73 113 144 113 84 0 152-61 152-136l0-8 8 0c28 0 48-34 48-64 0-29-19-48-48-48z m-448 184l48 0 0-16-48 0z m168 168l16 0 0-48-16 0z m-130-26l48-48-12-12-48 48z m146-358l16 0 0-32-16 0z m0-64l16 0 0-32-16 0z m30 26l-12 12 16 16 12-12z m-48-48l-12 12 16 16 12-12z m64 12l-12-12-16 16 12 12z m-76 52l12 12 16-16-12-12z m54-18l32 0 0-16-32 0z m-64 0l32 0 0-16-32 0z m200 24l16 0 0-32-16 0z m0-64l16 0 0-32-16 0z m30 26l-12 12 16 16 12-12z m-48-48l-12 12 16 16 12-12z m64 12l-12-12-16 16 12 12z m-76 52l12 12 16-16-12-12z m54-18l32 0 0-16-32 0z m-64 0l32 0 0-16-32 0z"/>
<glyph unicode="&#89;" d="M14 186l61 62 109 0c2-14 8-27 16-37l-83-83-77 0 0-16 72 0 0-72 16 0 0 77 83 83c10-8 23-14 37-16l0-109-62-61 12-12 58 59 58-59 12 12-62 61 0 109c14 2 27 8 37 16l83-83 0-77 16 0 0 72 72 0 0 16-77 0-83 83c8 10 14 23 16 37l109 0 61-62 12 12-59 58 59 58-12 12-61-62-109 0c-2 14-8 27-16 37l83 83 77 0 0 16-72 0 0 72-16 0 0-77-83-83c-10 8-23 14-37 16l0 109 62 61-12 12-58-59-58 59-12-12 62-61 0-109c-14-2-27-8-37-16l-83 83 0 77-16 0 0-72-72 0 0-16 77 0 83-83c-8-10-14-23-16-37l-109 0-61 62-12-12 59-58-59-58z m242 126c31 0 56-25 56-56 0-31-25-56-56-56-31 0-56 25-56 56 0 31 25 56 56 56z"/>
<glyph unicode="&#90;" d="M256 528l-70-200-193 0 158-123-71-211 176 132 176-132-71 211 158 123-193 0z m87-317l57-173-144 108-144-108 57 173-130 101 159 0 58 168 58-168 159 0z"/>
<glyph unicode="&#48;" d="M448 336c-4 90-80 160-176 160-85 0-157-53-174-128l-10 0c-48 0-88-44-88-96 0-50 38-88 88-88l352 0c41 0 72 31 72 72 0 36-25 75-64 80z m-8-136l-352 0c-41 0-72 31-72 72 0 43 33 80 72 80l23 0 1 7c13 70 80 121 160 121 90 0 160-67 160-152l0-8 8 0c33 0 56-34 56-64 0-32-24-56-56-56z m-327-164l64 112 14-8-64-112z m-80 0l64 112 14-8-64-112z m160 0l64 112 14-8-64-112z m80 0l64 112 14-8-64-112z m80 0l64 112 14-8-64-112z"/>
<glyph unicode="&#49;" d="M448 336c-4 90-80 160-176 160-85 0-157-53-174-128l-10 0c-48 0-88-44-88-96 0-50 38-88 88-88l352 0c41 0 72 31 72 72 0 36-25 75-64 80z m-8-136l-352 0c-41 0-72 31-72 72 0 43 33 80 72 80l23 0 1 7c13 70 80 121 160 121 90 0 160-67 160-152l0-8 8 0c33 0 56-34 56-64 0-32-24-56-56-56z m-191-53l-29-67 30 0-25-44 14-8 39 68-34 0 19 45z m80 0l-29-67 30 0-25-44 14-8 39 68-34 0 19 45z m-160 0l-29-67 30 0-25-44 14-8 39 68-34 0 19 45z"/>
<glyph unicode="&#50;" d="M43 248c-2-8-3-16-3-24 0-46 34-80 80-80l328 0c38 0 64 26 64 64 0 36-22 74-56 79-4 81-78 145-168 145-33 0-64-9-89-25-21 26-53 41-87 41-62 0-112-50-112-112 0-21 6-42 18-60 6-11 15-20 25-28z m397 32l0-8 8 0c28 0 48-34 48-64 0-29-19-48-48-48l-328 0c-38 0-64 26-64 64 0 40 29 72 64 72l23 0 1 7c12 65 73 113 144 113 84 0 152-61 152-136z m-328 152c29 0 55-13 74-34-28-22-48-51-56-86l-10 0c-31 0-58-20-71-48-7 6-13 13-18 20-10 16-15 34-15 52 0 53 43 96 96 96z m135-420l39 68-42 0 19 45-14 6-29-67 38 0-25-44z m80 0l39 68-42 0 19 45-14 6-29-67 38 0-25-44z m-160 0l39 68-42 0 19 45-14 6-29-67 38 0-25-44z"/>
<glyph unicode="&#51;" d="M456 287c-4 81-78 145-168 145-33 0-64-9-89-25-21 26-53 41-87 41-7 0-14-1-21-2l-11-2 6-10c7-10 10-22 10-34 0-36-29-64-64-64-7 0-14 1-21 3l-11 4 0-12c1-20 7-39 18-55 6-11 15-20 25-28-2-8-3-16-3-24 0-46 34-80 80-80l328 0c38 0 64 26 64 64 0 36-22 74-56 79z m-425-3c-7 11-12 24-14 37 5-1 10-1 15-1 44 0 80 35 80 80 0 11-2 22-7 32 2 0 5 0 7 0 29 0 55-13 74-34-28-22-48-51-56-86l-10 0c-31 0-58-20-71-48-7 6-13 13-18 20z m417-124l-328 0c-38 0-64 26-64 64 0 40 29 72 64 72l23 0 1 7c12 65 73 113 144 113 84 0 152-61 152-136l0-8 8 0c28 0 48-34 48-64 0-29-19-48-48-48z m-199-29l-29-67 38 0-25-44 14-8 39 68-42 0 19 45z m80 0l-29-67 38 0-25-44 14-8 39 68-42 0 19 45z m-160 0l-29-67 38 0-25-44 14-8 39 68-42 0 19 45z"/>
<glyph unicode="&#52;" d="M456 287c-4 81-78 145-168 145-16 0-31-2-45-6-20 14-43 22-67 22-62 0-112-50-112-112 0-17 4-29 10-40-21-16-34-42-34-72 0-46 34-80 80-80l328 0c38 0 64 26 64 64 0 36-22 74-56 79z m-376 49c0 53 43 96 96 96 17 0 33-4 48-13-47-19-83-58-94-107l-10 0c-12 0-22-3-32-8-6 10-8 19-8 32z m368-176l-328 0c-38 0-64 26-64 64 0 40 29 72 64 72l23 0 1 7c12 65 73 113 144 113 84 0 152-61 152-136l0-8 8 0c28 0 48-34 48-64 0-29-19-48-48-48z m-448 184l48 0 0-16-48 0z m168 168l16 0 0-48-16 0z m-130-26l48-48-12-12-48 48z m211-355l-29-67 38 0-25-44 14-8 39 68-42 0 19 45z m80 0l-29-67 38 0-25-44 14-8 39 68-42 0 19 45z m-160 0l-29-67 38 0-25-44 14-8 39 68-42 0 19 45z"/>
<glyph unicode="&#53;" d="M256 120c75 0 136 61 136 136 0 75-61 136-136 136-75 0-136-61-136-136 0-75 61-136 136-136z m0 256c66 0 120-54 120-120 0-66-54-120-120-120-66 0-120 54-120 120 0 66 54 120 120 120z m-8 136l16 0 0-80-16 0z m0-432l16 0 0-80-16 0z m184 184l80 0 0-16-80 0z m-432 0l80 0 0-16-80 0z m418 166l12-12-40-40-12 12z m-296-296l12-12-40-40-12 12z m296-52l-40 40 12 12 40-40z m-324 348l40-40-12-12-40 40z"/>
<glyph unicode="&#54;" d="M0 224l80 0 0-16-80 0z m432 0l80 0 0-16-80 0z m-184 256l16 0 0-88-16 0z m-194-82l64-64-12-12-64 64z m340-64l64 64 12-12-64-64z m-76-253l-12 12-50-50-50 51-12-13 56-57 12 0z m98 135c0 88-72 160-160 160-88 0-160-72-160-160 0-25 6-50 17-72l-113 0 0-16 512 0 0 16-113 0c11 22 17 47 17 72z m-304 0c0 79 65 144 144 144 79 0 144-65 144-144 0-25-7-50-19-72l-250 0c-12 22-19 47-19 72z"/>
<glyph unicode="&#55;" d="M0 224l80 0 0-16-80 0z m432 0l80 0 0-16-80 0z m-184 256l16 0 0-88-16 0z m-194-82l64-64-12-12-64 64z m340-64l64 64 12-12-64-64z m-88-308l12 13-56 57-12 0-56-57 12-12 50 50z m110 190c0 88-72 160-160 160-88 0-160-72-160-160 0-25 6-50 17-72l-113 0 0-16 512 0 0 16-113 0c11 22 17 47 17 72z m-304 0c0 79 65 144 144 144 79 0 144-65 144-144 0-25-7-50-19-72l-250 0c-12 22-19 47-19 72z"/>
<glyph unicode="&#56;" d="M384 392c0-1-1-72-128-72-126 0-128 69-128 73-3 35-34 103-128 103l0-16c103 0 112-85 112-88 0-1 0-23 19-45 16-19 39-31 70-38-57-22-97-77-97-141 0-84 68-152 152-152 84 0 152 68 152 152 0 64-40 119-97 141 31 7 54 19 70 38 19 22 19 44 19 44 0 1 2 23 17 45 19 29 51 44 95 44l0 16c-94 0-125-68-128-104z m8-224c0-75-61-136-136-136-75 0-136 61-136 136 0 75 61 136 136 136 75 0 136-61 136-136z"/>
<glyph unicode="&#57;" d="M448 336c-4 90-80 160-176 160-85 0-157-53-174-128l-10 0c-48 0-88-44-88-96 0-50 38-88 88-88l352 0c41 0 72 31 72 72 0 36-25 75-64 80z m-8-136l-352 0c-41 0-72 31-72 72 0 43 33 80 72 80l23 0 1 7c13 70 80 121 160 121 90 0 160-67 160-152l0-8 8 0c33 0 56-34 56-64 0-32-24-56-56-56z m-191-53l-29-67 30 0-25-44 14-8 39 68-34 0 19 45z m56-111l64 112 14-8-64-112z m-200 0l64 112 14-8-64-112z"/>
<glyph unicode="&#33;" d="M456 287c-4 81-78 145-168 145-33 0-64-9-89-25-21 26-53 41-87 41-62 0-112-50-112-112 0-21 6-42 18-60 6-11 15-20 25-28-2-8-3-16-3-24 0-46 34-80 80-80l328 0c38 0 64 26 64 64 0 36-22 74-56 79z m-425-3c-10 16-15 34-15 52 0 53 43 96 96 96 29 0 55-13 74-34-28-22-48-51-56-86l-10 0c-31 0-58-20-71-48-7 6-13 13-18 20z m417-124l-328 0c-38 0-64 26-64 64 0 40 29 72 64 72l23 0 1 7c12 65 73 113 144 113 84 0 152-61 152-136l0-8 8 0c28 0 48-34 48-64 0-29-19-48-48-48z m-199-29l-29-67 30 0-25-44 14-8 39 68-34 0 19 45z m-136-111l64 112 14-8-64-112z m192 0l64 112 14-8-64-112z"/>
<glyph unicode="&#34;" d="M456 287c-4 81-78 145-168 145-33 0-64-9-89-25-21 26-53 41-87 41-7 0-14-1-21-2l-11-2 6-10c7-10 10-22 10-34 0-36-29-64-64-64-7 0-14 1-21 3l-11 4 0-12c1-20 7-39 18-55 6-11 15-20 25-28-2-8-3-16-3-24 0-46 34-80 80-80l328 0c38 0 64 26 64 64 0 36-22 74-56 79z m-425-3c-7 11-12 24-14 37 5-1 10-1 15-1 44 0 80 35 80 80 0 11-2 22-7 32 2 0 5 0 7 0 29 0 55-13 74-34-28-22-48-51-56-86l-10 0c-31 0-58-20-71-48-7 6-13 13-18 20z m417-124l-328 0c-38 0-64 26-64 64 0 40 29 72 64 72l23 0 1 7c12 65 73 113 144 113 84 0 152-61 152-136l0-8 8 0c28 0 48-34 48-64 0-29-19-48-48-48z m-199-29l-29-67 30 0-25-44 14-8 39 68-34 0 19 45z m-136-111l64 112 14-8-64-112z m192 0l64 112 14-8-64-112z"/>
<glyph unicode="&#35;" d="M456 287c-4 81-78 145-168 145-16 0-31-2-45-6-20 14-43 22-67 22-62 0-112-50-112-112 0-17 4-29 10-40-21-16-34-42-34-72 0-46 34-80 80-80l328 0c38 0 64 26 64 64 0 36-22 74-56 79z m-376 49c0 53 43 96 96 96 17 0 33-4 48-13-47-19-83-58-94-107l-10 0c-12 0-22-3-32-8-6 10-8 19-8 32z m368-176l-328 0c-38 0-64 26-64 64 0 40 29 72 64 72l23 0 1 7c12 65 73 113 144 113 84 0 152-61 152-136l0-8 8 0c28 0 48-34 48-64 0-29-19-48-48-48z m-448 184l48 0 0-16-48 0z m168 168l16 0 0-48-16 0z m-94-86l-48 48 12 12 48-48z m175-295l-29-67 30 0-25-44 14-8 39 68-34 0 19 45z m-136-111l64 112 14-8-64-112z m192 0l64 112 14-8-64-112z"/>
<glyph unicode="&#36;" d="M43 208c-2-8-3-16-3-24 0-46 34-80 80-80l328 0c38 0 64 26 64 64 0 36-22 74-56 79-4 81-78 145-168 145-33 0-64-9-89-25-21 26-53 41-87 41-62 0-112-50-112-112 0-21 6-42 18-60 6-11 15-20 25-28z m397 32l0-8 8 0c28 0 48-34 48-64 0-29-19-48-48-48l-328 0c-38 0-64 26-64 64 0 40 29 72 64 72l23 0 1 7c12 65 73 113 144 113 84 0 152-61 152-136z m-328 152c29 0 55-13 74-34-28-22-48-51-56-86l-10 0c-31 0-58-20-71-48-7 6-13 13-18 20-10 16-15 34-15 52 0 53 43 96 96 96z"/>
<glyph unicode="&#37;" d="M456 247c-4 81-78 145-168 145-33 0-64-9-89-25-21 26-53 41-87 41-7 0-14-1-21-2l-11-2 6-10c7-10 10-22 10-34 0-36-29-64-64-64-7 0-14 1-21 3l-11 4 0-12c1-20 7-39 18-55 6-11 15-20 25-28-2-8-3-16-3-24 0-46 34-80 80-80l328 0c38 0 64 26 64 64 0 36-22 74-56 79z m-425-3c-7 11-12 24-14 37 5-1 10-1 15-1 44 0 80 35 80 80 0 11-2 22-7 32 2 0 5 0 7 0 29 0 55-13 74-34-28-22-48-51-56-86l-10 0c-31 0-58-20-71-48-7 6-13 13-18 20z m417-124l-328 0c-38 0-64 26-64 64 0 40 29 72 64 72l23 0 1 7c12 65 73 113 144 113 84 0 152-61 152-136l0-8 8 0c28 0 48-34 48-64 0-29-19-48-48-48z"/>
<glyph unicode="&#38;" d="M456 247c-4 81-78 145-168 145-16 0-31-2-45-6-20 14-43 22-67 22-62 0-112-50-112-112 0-17 4-29 10-40-21-16-34-42-34-72 0-46 34-80 80-80l328 0c38 0 64 26 64 64 0 36-22 74-56 79z m-376 49c0 53 43 96 96 96 17 0 33-4 48-13-47-19-83-58-94-107l-10 0c-12 0-22-3-32-8-6 10-8 19-8 32z m368-176l-328 0c-38 0-64 26-64 64 0 40 29 72 64 72l23 0 1 7c12 65 73 113 144 113 84 0 152-61 152-136l0-8 8 0c28 0 48-34 48-64 0-29-19-48-48-48z m-448 184l48 0 0-16-48 0z m168 168l16 0 0-48-16 0z m-130-26l48-48-12-12-48 48z"/>
<glyph unicode="&#39;" d="M488 320c0 12-2 120-56 120-19 0-32-13-40-31l0 7c0 33-15 96-72 96-35 0-55-24-64-51-10 27-29 51-64 51-36 0-55-26-65-53-9 24-28 45-63 45l0-16c55 0 56-69 56-72l0-320 16 0 0 320c0 3 1 80 56 80 55 0 56-77 56-80l0-320 16 0 0 320c0 1 1 80 56 80 55 0 56-77 56-80l0-320c0-1 0-2 0-3-31-24-68-37-112-37l0-16c47 0 85 14 114 35 9-48 47-80 49-81l10 12c0 0-40 34-44 81 89 79 95 231 95 233z m-96 0c0 27 7 104 40 104 33 0 40-77 40-104 0 0-2-67-30-133-13-33-30-59-50-80z"/>
<glyph unicode="&#40;" d="M326 502l0 2c-1 0-2-1-3-1-21 6-44 9-67 9-141 0-256-115-256-256 0-141 115-256 256-256 23 0 46 3 67 9 1 0 2 0 3-1l0 2c107 31 186 129 186 246 0 117-79 215-186 246z m170-246c0-5 0-11-1-16l-334 0c-1 5-1 11-1 16 0 5 0 11 1 16l334 0c1-5 1-11 1-16z m-223-208c-15 9-29 20-42 32l188 0c-13-12-28-23-44-32z m69-16c-6-2-12-4-18-6-7 2-13 4-18 6z m-125 64c-9 10-16 21-23 32l265 0c-7-11-15-22-24-32z m-32 48c-5 10-9 21-13 32l310 0c-4-11-8-22-14-32z m-17 48c-3 10-5 21-6 32l332 0c-2-11-4-22-7-32z m-6 96c1 11 3 22 6 32l319 0c3-10 5-21 7-32z m10 48c4 11 8 22 13 32l283 0c6-10 10-21 14-32z m22 48c7 11 14 22 23 32l218 0c9-10 17-21 24-32z m37 48c13 12 27 23 42 32l103 0c15-9 30-20 43-32z m74 48c6 2 12 4 19 6 6-2 12-4 18-6z m-49-464c-132 0-240 108-240 240 0 132 108 240 240 240 13 0 26-1 39-3-92-38-151-130-151-237 0-107 59-199 151-237-13-2-26-3-39-3z"/>
<glyph unicode="&#41;" d="M256 512c-23 0-46-3-67-9-1 0-2 0-3 1l0-2c-107-31-186-129-186-246 0-117 79-215 186-246l0-2c1 0 2 1 3 1 21-6 44-9 67-9 141 0 256 115 256 256 0 141-115 256-256 256z m240-256c0-5 0-11-1-16l-128 0c1 5 1 11 1 16 0 5 0 11-1 16l128 0c1-5 1-11 1-16z m-193-176l116 0c-13-12-28-23-43-32l-108 0c12 10 24 20 35 32z m13 16c8 10 14 21 20 32l123 0c-7-11-15-22-24-32z m28 48c5 10 9 21 12 32l126 0c-4-11-8-22-14-32z m17 48c2 10 4 21 5 32l128 0c-2-11-4-22-7-32z m5 96c-1 11-3 22-5 32l126 0c3-10 5-21 7-32z m-10 48c-3 11-7 22-12 32l124 0c6-10 10-21 14-32z m-20 48c-6 11-12 22-20 32l119 0c9-10 17-21 24-32z m-33 48c-11 12-23 22-35 32l108 0c15-9 30-20 43-32z m-47 64c30 0 59-6 86-16l-98 0c-9 5-18 9-27 13 13 2 26 3 39 3z m-240-240c0 109 73 201 172 230 98-29 164-121 164-230 0-109-66-201-164-230-99 29-172 121-172 230z m201-237c9 4 18 8 27 13l98 0c-27-10-56-16-86-16-13 0-26 1-39 3z"/>
<glyph unicode="&#42;" d="M186 10l0-2c1 0 2 1 3 1 21-6 44-9 67-9 141 0 256 115 256 256 0 141-115 256-256 256-23 0-46-3-67-9-1 0-2 0-3 1l0-2c-107-31-186-129-186-246 0-117 79-215 186-246z m-170 246c0 5 0 11 1 16l334 0c1-5 1-11 1-16 0-5 0-11-1-16l-334 0c-1 5-1 11-1 16z m223 208c15-9 29-20 42-32l-188 0c13 12 28 23 43 32z m-69 16c6 2 12 4 18 6 7-2 13-4 19-6z m125-64c9-10 16-21 23-32l-265 0c7 11 15 22 24 32z m32-48c5-10 9-21 13-32l-310 0c4 11 8 22 14 32z m-88-320l-103 0c-15 9-30 20-43 32l188 0c-13-12-27-23-42-32z m-32-16c-6-2-12-4-19-6-6 2-12 4-18 6z m88 64l-218 0c-9 10-17 21-24 32l265 0c-7-11-14-22-23-32z m32 48l-283 0c-6 10-10 21-14 32l310 0c-4-11-8-22-13-32z m17 176c3-10 5-21 6-32l-332 0c2 11 4 22 7 32z m6-96c-1-11-3-22-6-32l-319 0c-3 10-5 21-7 32z m-94 272c132 0 240-108 240-240 0-132-108-240-240-240-13 0-26 1-39 3 92 38 151 130 151 237 0 107-59 199-151 237 13 2 26 3 39 3z"/>
<glyph unicode="&#43;" d="M326 502l0 2c-1 0-2-1-3-1-21 6-44 9-67 9-141 0-256-115-256-256 0-141 115-256 256-256 23 0 46 3 67 9 1 0 2 0 3-1l0 2c107 31 186 129 186 246 0 117-79 215-186 246z m-31-9c-9-4-18-8-27-13l-98 0c27 10 56 16 86 16 13 0 26-1 39-3z m-202-413l116 0c11-12 23-22 35-32l-108 0c-15 9-30 20-43 32z m-16 16c-9 10-17 21-24 32l123 0c6-11 12-22 20-32z m-33 48c-6 10-10 21-14 32l126 0c3-11 7-22 12-32z m-28 112c0 5 0 11 1 16l128 0c-1-5-1-11-1-16 0-5 0-11 1-16l-128 0c-1 5-1 11-1 16z m130-32c1-11 3-22 5-32l-126 0c-3 10-5 21-7 32z m0 64l-128 0c2 11 4 22 7 32l126 0c-2-10-4-21-5-32z m10 48l-126 0c4 11 8 22 14 32l124 0c-5-10-9-21-12-32z m20 48l-123 0c7 11 15 22 24 32l119 0c-8-10-14-21-20-32z m33 48l-116 0c13 12 28 23 43 32l108 0c-12-10-24-20-35-32z m47-416c-30 0-59 6-86 16l98 0c9-5 18-9 27-13-13-2-26-3-39-3z m68 10c-98 29-164 121-164 230 0 109 66 201 164 230 99-29 172-121 172-230 0-109-73-201-172-230z"/>
<glyph unicode="&#44;" d="M88 184l0 16c-41 0-72 31-72 72 0 43 33 80 72 80l23 0 1 7c13 70 80 121 160 121 90 0 160-67 160-152l0-8 8 0c33 0 56-34 56-64 0-32-24-56-56-56l0-16c41 0 72 31 72 72 0 36-25 75-64 80-4 90-80 160-176 160-85 0-157-53-174-128l-10 0c-48 0-88-44-88-96 0-50 38-88 88-88z m168-168c-18 0-32 14-32 32l-16 0c0-26 22-48 48-48 26 0 48 22 48 48 0 26-22 48-48 48l-240 0 0-16 240 0c18 0 32-14 32-32 0-18-14-32-32-32z m152 160c0 26-22 48-48 48-26 0-48-22-48-48l16 0c0 18 14 32 32 32 18 0 32-14 32-32 0-18-14-32-32-32l-328 0 0-16 328 0c26 0 48 22 48 48z"/>
<glyph unicode="&#45;" d="M256 512c-141 0-256-115-256-256 0-141 115-256 256-256 141 0 256 115 256 256 0 141-115 256-256 256z m0-496c-132 0-240 108-240 240 0 132 108 240 240 240 132 0 240-108 240-240 0-132-108-240-240-240z m-40 240c0-22 18-40 40-40 22 0 40 18 40 40 0 22-18 40-40 40-22 0-40-18-40-40z m64 0c0-13-11-24-24-24-13 0-24 11-24 24 0 13 11 24 24 24 13 0 24-11 24-24z m-128 0c0-57 47-104 104-104 55 0 198 93 204 97l11 7-11 7c-6 4-149 97-204 97-57 0-104-47-104-104z m104-88c-49 0-88 39-88 88 0 49 39 88 88 88 38 0 138-58 185-88-47-30-147-88-185-88z"/>
<glyph unicode="&#46;" d="M456 287c-4 81-78 145-168 145-33 0-64-9-89-25-21 26-53 41-87 41-62 0-112-50-112-112 0-21 6-42 18-60 6-11 15-20 25-28-2-8-3-16-3-24 0-46 34-80 80-80l0 16c-38 0-64 26-64 64 0 40 29 72 64 72l23 0 1 7c12 65 73 113 144 113 84 0 152-61 152-136l0-8 8 0c28 0 48-34 48-64 0-29-19-48-48-48l0-16c38 0 64 26 64 64 0 36-22 74-56 79z m-326 25l-10 0c-31 0-58-20-71-48-7 6-13 13-18 20-10 16-15 34-15 52 0 53 43 96 96 96 29 0 55-13 74-34-28-22-48-51-56-86z m-114-232l240 0c18 0 32-14 32-32 0-18-14-32-32-32-18 0-32 14-32 32l-16 0c0-26 22-48 48-48 26 0 48 22 48 48 0 26-22 48-48 48l-240 0z m344 48l-328 0 0-16 328 0c26 0 48 22 48 48 0 26-22 48-48 48-26 0-48-22-48-48l16 0c0 18 14 32 32 32 18 0 32-14 32-32 0-18-14-32-32-32z"/>
<glyph unicode="&#47;" d="M456 287c-4 81-78 145-168 145-33 0-64-9-89-25-21 26-53 41-87 41-7 0-14-1-21-2l-11-2 6-10c7-10 10-22 10-34 0-36-29-64-64-64-7 0-14 1-21 3l-11 4 0-12c1-20 7-39 18-55 6-11 15-20 25-28-2-8-3-16-3-24 0-46 34-80 80-80l0 16c-38 0-64 26-64 64 0 40 29 72 64 72l23 0 1 7c12 65 73 113 144 113 84 0 152-61 152-136l0-8 8 0c28 0 48-34 48-64 0-29-19-48-48-48l0-16c38 0 64 26 64 64 0 36-22 74-56 79z m-326 25l-10 0c-31 0-58-20-71-48-7 6-13 13-18 20-7 11-12 24-14 37 5-1 10-1 15-1 44 0 80 35 80 80 0 11-2 22-7 32 2 0 5 0 7 0 29 0 55-13 74-34-28-22-48-51-56-86z m-114-232l240 0c18 0 32-14 32-32 0-18-14-32-32-32-18 0-32 14-32 32l-16 0c0-26 22-48 48-48 26 0 48 22 48 48 0 26-22 48-48 48l-240 0z m344 48l-328 0 0-16 328 0c26 0 48 22 48 48 0 26-22 48-48 48-26 0-48-22-48-48l16 0c0 18 14 32 32 32 18 0 32-14 32-32 0-18-14-32-32-32z"/>
<glyph unicode="&#58;" d="M256 512c-141 0-256-115-256-256 0-141 115-256 256-256 141 0 256 115 256 256 0 141-115 256-256 256z m0-496c-132 0-240 108-240 240 0 132 108 240 240 240 132 0 240-108 240-240 0-132-108-240-240-240z m-40 240c0-22 18-40 40-40 22 0 40 18 40 40 0 22-18 40-40 40-22 0-40-18-40-40z m64 0c0-13-11-24-24-24-13 0-24 11-24 24 0 13 11 24 24 24 13 0 24-11 24-24z m-24 215l-7-11c-4-6-97-149-97-204 0-57 47-104 104-104 57 0 104 47 104 104 0 55-93 198-97 204z m0-303c-49 0-88 39-88 88 0 38 58 138 88 185 30-47 88-147 88-185 0-49-39-88-88-88z"/>
<glyph unicode="&#59;" d="M256 512c-68 0-133-27-181-75-100-100-100-262 0-362 48-48 113-75 181-75 68 0 133 27 181 75 100 100 100 262 0 362-48 48-113 75-181 75z m170-426c-46-45-106-70-170-70-64 0-124 25-170 70-93 94-93 246 0 340 46 45 106 70 170 70 64 0 124-25 170-70 93-94 93-246 0-340z m-170 130c11 0 21 4 28 12 16 15 16 41 0 56-7 8-17 12-28 12-11 0-21-4-28-12-16-15-16-41 0-56 7-8 17-12 28-12z m-17 57c5 5 11 7 17 7 6 0 12-2 17-7 9-9 9-25 0-34-9-9-25-9-34 0-9 9-9 25 0 34z m-57 57c-40-41-40-107 0-148 20-19 46-30 74-30 28 0 54 11 74 30 38 39 69 202 70 209l2 11-11-2c-7-1-170-32-209-70z m136-136c-16-17-38-26-62-26-24 0-46 9-62 26-35 34-35 90 0 124 27 27 136 54 188 64-10-52-37-161-64-188z"/>
<glyph unicode="&#60;" d="M256 512c-68 0-133-27-181-75-48-48-75-113-75-181 0-68 27-133 75-181 48-48 113-75 181-75 68 0 133 27 181 75 48 48 75 113 75 181 0 68-27 133-75 181-48 48-113 75-181 75z m170-426c-46-45-106-70-170-70-64 0-124 25-170 70-45 46-70 106-70 170 0 64 25 124 70 170 46 45 106 70 170 70 64 0 124-25 170-70 45-46 70-106 70-170 0-64-25-124-70-170z m-170 210c-11 0-21-4-28-12-8-7-12-17-12-28 0-11 4-21 12-28 7-8 17-12 28-12 11 0 21 4 28 12 8 7 12 17 12 28 0 11-4 21-12 28-7 8-17 12-28 12z m17-57c-9-9-25-9-34 0-5 5-7 11-7 17 0 6 2 12 7 17 5 5 11 7 17 7 6 0 12-2 17-7 4-5 7-11 7-17 0-6-2-12-7-17z m-152 161l-11 2 2-11c1-7 32-170 70-209 20-19 46-30 74-30 28 0 54 11 74 30 19 20 30 46 30 74 0 28-11 54-30 74-39 38-202 69-209 70z m197-206c-16-17-39-26-62-26-24 0-46 9-62 26-27 27-53 136-64 188 52-11 161-37 188-64 17-16 26-38 26-62 0-24-9-46-26-62z"/>
<glyph unicode="&#61;" d="M256 0c141 0 256 115 256 256 0 141-115 256-256 256-141 0-256-115-256-256 0-141 115-256 256-256z m0 496c132 0 240-108 240-240 0-132-108-240-240-240-132 0-240 108-240 240 0 132 108 240 240 240z m40-240c0 22-18 40-40 40-22 0-40-18-40-40 0-22 18-40 40-40 22 0 40 18 40 40z m-64 0c0 13 11 24 24 24 13 0 24-11 24-24 0-13-11-24-24-24-13 0-24 11-24 24z m24-215l7 11c4 6 97 149 97 204 0 57-47 104-104 104-57 0-104-47-104-104 0-55 93-198 97-204z m0 303c49 0 88-39 88-88 0-38-58-138-88-185-30 47-88 147-88 185 0 49 39 88 88 88z"/>
<glyph unicode="&#62;" d="M256 512c-68 0-133-27-181-75-100-100-100-262 0-362 48-48 113-75 181-75 68 0 133 27 181 75 100 100 100 262 0 362-48 48-113 75-181 75z m170-426c-46-45-106-70-170-70-64 0-124 25-170 70-93 94-93 246 0 340 46 45 106 70 170 70 64 0 124-25 170-70 93-94 93-246 0-340z m-170 210c-11 0-21-4-28-12-16-15-16-41 0-56 7-8 17-12 28-12 11 0 21 4 28 12 16 15 16 41 0 56-7 8-17 12-28 12z m17-57c-9-9-25-9-34 0-9 9-9 25 0 34 5 5 11 7 17 7 6 0 12-2 17-7 9-9 9-25 0-34z m57 91c-20 19-46 30-74 30-28 0-54-11-74-30-19-20-30-46-30-74 0-28 11-54 30-74 39-38 202-69 209-70l11-2-2 11c-1 7-32 170-70 209z m-136-136c-17 16-26 39-26 62 0 24 9 46 26 62 16 17 38 26 62 26 24 0 46-9 62-26 27-27 53-136 64-188-52 11-161 37-188 64z"/>
<glyph unicode="&#63;" d="M456 287c-4 81-78 145-168 145-16 0-31-2-45-6-20 14-43 22-67 22-62 0-112-50-112-112 0-17 4-29 10-40-21-16-34-42-34-72 0-46 34-80 80-80l0 16c-38 0-64 26-64 64 0 40 29 72 64 72l23 0 1 7c12 65 73 113 144 113 84 0 152-61 152-136l0-8 8 0c28 0 48-34 48-64 0-29-19-48-48-48l0-16c38 0 64 26 64 64 0 36-22 74-56 79z m-326 25l-10 0c-12 0-22-3-32-8-6 10-8 19-8 32 0 53 43 96 96 96 17 0 33-4 48-13-47-19-83-58-94-107z m-130 32l48 0 0-16-48 0z m168 168l16 0 0-48-16 0z m-130-26l48-48-12-12-48 48z m218-470c-18 0-32 14-32 32l-16 0c0-26 22-48 48-48 26 0 48 22 48 48 0 26-22 48-48 48l-240 0 0-16 240 0c18 0 32-14 32-32 0-18-14-32-32-32z m104 112l-328 0 0-16 328 0c26 0 48 22 48 48 0 26-22 48-48 48-26 0-48-22-48-48l16 0c0 18 14 32 32 32 18 0 32-14 32-32 0-18-14-32-32-32z"/>
<glyph unicode="&#64;" d="M437 75c100 100 100 262 0 362-48 48-113 75-181 75-68 0-133-27-181-75-100-100-100-262 0-362 48-48 113-75 181-75 68 0 133 27 181 75z m-351 351c46 45 106 70 170 70 64 0 124-25 170-70 93-94 93-246 0-340-46-45-106-70-170-70-64 0-124 25-170 70-93 94-93 246 0 340z m170-130c-11 0-21-4-28-12-16-15-16-41 0-56 7-8 17-12 28-12 11 0 21 4 28 12 16 15 16 41 0 56-7 8-17 12-28 12z m17-57c-9-9-25-9-34 0-9 9-9 25 0 34 5 5 11 7 17 7 6 0 12-2 17-7 9-9 9-25 0-34z m57 91c-20 19-46 30-74 30-28 0-54-11-74-30-38-39-69-202-70-209l-2-11 11 2c7 1 170 32 209 70 40 41 40 107 0 148z m-200-200c11 52 37 161 64 188 16 17 38 26 62 26 24 0 46-9 62-26 35-34 35-90 0-124-27-27-136-53-188-64z"/>
<glyph unicode="&#91;" d="M256 0c141 0 256 115 256 256 0 141-115 256-256 256-141 0-256-115-256-256 0-141 115-256 256-256z m0 496c132 0 240-108 240-240 0-132-108-240-240-240-132 0-240 108-240 240 0 132 108 240 240 240z m40-240c0 22-18 40-40 40-22 0-40-18-40-40 0-22 18-40 40-40 22 0 40 18 40 40z m-64 0c0 13 11 24 24 24 13 0 24-11 24-24 0-13-11-24-24-24-13 0-24 11-24 24z m-180-7c6-4 149-97 204-97 57 0 104 47 104 104 0 57-47 104-104 104-55 0-198-93-204-97l-11-7z m204 95c49 0 88-39 88-88 0-49-39-88-88-88-38 0-138 58-185 88 47 30 147 88 185 88z"/>
<glyph unicode="&#93;" d="M0 240l408 0c26 0 48-22 48-48 0-26-22-48-48-48-26 0-48 22-48 48l-16 0c0-35 29-64 64-64 35 0 64 29 64 64 0 35-29 64-64 64l-408 0z m0 56l448 0c35 0 64 29 64 64 0 35-29 64-64 64-35 0-64-29-64-64l16 0c0 26 22 48 48 48 26 0 48-22 48-48 0-26-22-48-48-48l-448 0z m0-112l256 0c18 0 32-14 32-32 0-18-14-32-32-32-18 0-32 14-32 32l-16 0c0-26 22-48 48-48 26 0 48 22 48 48 0 26-22 48-48 48l-256 0z"/>
<glyph unicode="&#94;" d="M96 85l67 67 13 0 0 16-8 0 0 8-16 0 0-13-67-67-85 0 0-96 96 0z m-16-69l-64 0 0 64 64 0z m336 411l-67-67-13 0 0-16 8 0 0-8 16 0 0 13 67 67 85 0 0 96-96 0z m16 69l64 0 0-64-64 0z m-240-136l32 0 0-16-32 0z m96 0l32 0 0-16-32 0z m-48 0l32 0 0-16-32 0z m-72-16l8 0 0 16-24 0 0-24 16 0z m-16-120l16 0 0-32-16 0z m0 96l16 0 0-32-16 0z m0-48l16 0 0-32-16 0z m40-104l32 0 0-16-32 0z m48 0l32 0 0-16-32 0z m48 0l32 0 0-16-32 0z m56 0l-8 0 0-16 24 0 0 24-16 0z m0 104l16 0 0-32-16 0z m0-48l16 0 0-32-16 0z m0 96l16 0 0-32-16 0z m-144-72l48 0 0-48 16 0 0 48 48 0 0 16-48 0 0 48-16 0 0-48-48 0z"/>
<glyph unicode="&#95;" d="M256 88c141 0 256 75 256 168 0 93-115 168-256 168-141 0-256-75-256-168 0-93 115-168 256-168z m-240 160l232 0 0-144c-124 3-225 66-232 144z m248-144l0 144 232 0c-7-78-108-141-232-144z m232 160l-232 0 0 144c124-3 225-66 232-144z m-248 144l0-144-232 0c7 78 108 141 232 144z"/>
<glyph unicode="&#96;" d="M383 32l127 224-127 224-254 0-127-224 127-224z m-233 16l106 192 106-192z m342 208l-115-202-112 202 112 202z m-236 16l-106 192 212 0z m-121 186l112-202-112-202-115 202z"/>
<glyph unicode="&#123;" d="M0 88l512 0 0 336-512 0z m271 168l225 145 0-290z m206-152l-442 0 221 142z m-221 162l-221 142 442 0z m-15-10l-225-145 0 290z"/>
<glyph unicode="&#124;" d="M104 88l304 0c57 0 104 47 104 104l0 128c0 57-47 104-104 104l-304 0c-57 0-104-47-104-104l0-128c0-57 47-104 104-104z m0 16c-18 0-36 6-50 16l202 127 202-127c-14-10-32-16-50-16z m392 216l0-128c0-24-10-46-25-62l-200 126 200 126c15-16 25-38 25-62z m-88 88c18 0 36-6 50-16l-202-127-202 127c14 10 32 16 50 16z m-392-88c0 24 10 46 25 62l200-126-200-126c-15 16-25 38-25 62z"/>
<glyph unicode="&#125;" d="M88 95l16-6 39 111 154 0 39-113 16 6-122 347-20 0z m203 121l-143 0 72 203z m117 296l16 0 0-512-16 0z"/>
<glyph unicode="&#126;" d="M432 421l78 77-12 12-77-78-325 0 0 80-16 0 0-80-80 0 0-16 80 0 0-336 336 0 0-80 16 0 0 80 80 0 0 16-80 0z m-27-5l-309-309 0 309z m-298-320l309 309 0-309z"/>
<glyph unicode="&#92;" d="M432 512l-3 0-3-2c0 0-20-21-32-32l-90-91-32 32-43-43 36-36-241-257 0-16-27-27 43-43 27 27 16 0 257 241 36-36 43 43-32 32 125 125 0 3c0 40-40 80-80 80z m-355-472l-16 0-21-21-21 21 21 21 0 16 236 252 53-53z m299 211l-125 125 21 21 125-125z m0 64l-61 61 91 90c9 10 23 24 29 30 29-2 59-32 61-61z"/>
<glyph unicode="&#57344;" d="M73 192l134 0 33-91 15 6-105 285-20 0-106-285 15-6z m67 180l61-164-122 0z m165-180l134 0 33-91 15 6-105 285-20 0-106-285 15-6z m67 180l61-164-122 0z m140 140l-512 0 0-512 512 0z m-16-496l-480 0 0 480 480 0z"/>
<glyph unicode="&#57345;" d="M242 272l38-107 16 6-122 341-20 0-122-341 16-6 38 107z m-78 219l73-203-146 0z m230-35l-66-189 16-6 17 51 86 0 17-51 16 6-66 189z m-27-128l37 107 37-107z m-351-184l288 0 0-16-288 0z m304 96l176 0 0-16-176 0z m96-240l0 173 42-43 12 13-56 57-12 0-56-57 12-12 42 42 0-173z"/>
<glyph unicode="&#57346;" d="M338 264l38-107 16 6-122 341-20 0-122-341 16-6 38 107z m-78 219l73-203-146 0z m-195-357l-57-56 0-12 57-56 12 12-42 42 442 0-43-42 13-12 57 56 0 12-57 56-12-12 42-42-442 0 42 42z"/>
<glyph unicode="&#57347;" d="M98 424l-66-189 16-6 17 51 86 0 17-51 16 6-66 189z m-27-128l37 107 37-107z m257-61l16-6 17 51 86 0 17-51 16 6-66 189-20 0z m113 61l-74 0 37 107z m-193 168l16 0 0-16-16 0z m0-224l16 0 0-32-16 0z m0 96l16 0 0-32-16 0z m0 48l16 0 0-32-16 0z m0-96l16 0 0-32-16 0z m0 144l16 0 0-32-16 0z m0-240l16 0 0-16-16 0z m199-190l57 56 0 12-57 56-12-12 42-42-442 0 43 42-13 12-57-56 0-12 57-56 12 12-42 42 442 0-42-42z"/>
<glyph unicode="&#57348;" d="M346 512l-66-189 16-6 17 51 86 0 17-51 16 6-66 189z m-27-128l37 107 37-107z m-103-88l272 0 0-16-272 0z m183-192l17-51 16 6-66 189-20 0-66-189 16-6 17 51z m-43 123l37-107-74 0z m-140-195l272 0 0-16-272 0z m-70 202l12 13-56 57-12 0-56-57 12-12 42 42 0-242-42 43-12-13 56-57 12 0 56 57-12 12-42-42 0 242z"/>
<glyph unicode="&#57349;" d="M426 272l38-107 16 6-122 341-20 0-122-341 16-6 38 107z m-78 219l73-203-146 0z m-197-275l17-51 16 6-66 189-20 0-66-189 16-6 17 51z m-43 123l37-107-74 0z m347-337l57 56 0 12-57 56-12-12 42-42-458 0 43 42-13 12-57-56 0-12 57-56 12 12-42 42 458 0-42-42z"/>
<glyph unicode="&#57350;" d="M162 448l-122-341 16-6 38 107 156 0 38-107 16 6-122 341z m-63-224l73 203 73-203z m287 72l-66-189 16-6 17 51 86 0 17-51 16 6-66 189z m-27-128l37 107 37-107z m-359-168l512 0 0 512-512 0z m16 496l480 0 0-480-480 0z"/>
<glyph unicode="&#57351;" d="M170 448l-122-341 16-6 38 107 156 0 38-107 16 6-122 341z m-63-224l73 203 73-203z m341-88l0 80c0 19-14 48-52 48-36 0-50-18-50-19l12-10c1 1 11 13 38 13 26 0 36-19 36-32l0-16-32 0c-22 0-64-10-64-48 0-31 17-48 48-48 22 0 37 7 48 20 3-10 16-20 24-20l0 16c-8 0-8 13-8 16z m-64-16c-14 0-32 3-32 32 0 31 46 32 48 32l32 0 0-16c0-40-26-48-48-48z m-384-120l512 0 0 512-512 0z m16 496l480 0 0-480-480 0z"/>
<glyph unicode="&#57352;" d="M448 216c0 19-14 48-52 48-36 0-50-18-50-19l12-10c1 1 11 13 38 13 26 0 36-19 36-32l0-16-32 0c-19 0-51-7-61-32l-49 0-100 280-20 0-100-280-22 0 0-16 17 0-17-45 16-6 18 51 196 0 18-51 16 6-17 45 41 0c0-31 17-48 48-48 22 0 37 7 48 20 3-10 16-20 24-20l0 16c-8 0-8 13-8 16l0 16 16 0 0 16-16 0z m-268 211l67-187-134 0z m-93-259l20 56 146 0 20-56z m297-48c-14 0-32 3-32 32l78 0c-6-26-27-32-46-32z m-27 48c13 16 41 16 43 16l32 0 0-16z m-357-168l512 0 0 512-512 0z m16 496l480 0 0-480-480 0z"/>
<glyph unicode="&#57353;" d="M80 229l17 51 86 0 17-51 16 6-66 189-20 0-66-189z m60 174l37-107-74 0z m222 21l-66-189 16-6 17 51 86 0 17-51 16 6-66 189z m-27-128l37 107 37-107z m-87 168l16 0 0-16-16 0z m0-128l16 0 0-32-16 0z m0-96l16 0 0-32-16 0z m0 48l16 0 0-32-16 0z m0 144l16 0 0-32-16 0z m0-48l16 0 0-32-16 0z m0-192l16 0 0-16-16 0z m-224 272l16 0 0-16-16 0z m0-176l16 0 0-32-16 0z m0 144l16 0 0-32-16 0z m0-192l16 0 0-32-16 0z m0 96l16 0 0-32-16 0z m0 48l16 0 0-32-16 0z m0-192l16 0 0-16-16 0z m448 272l16 0 0-16-16 0z m0-128l16 0 0-32-16 0z m0 48l16 0 0-32-16 0z m0-96l16 0 0-32-16 0z m0 144l16 0 0-32-16 0z m0-192l16 0 0-32-16 0z m0-48l16 0 0-16-16 0z m-25-190l57 56 0 12-57 56-12-12 42-42-442 0 43 42-13 12-57-56 0-12 57-56 12 12-42 42 442 0-42-42z"/>
<glyph unicode="&#57354;" d="M107 224l146 0 43-123 16 6-122 341-20 0-122-341 16-6z m73 203l67-187-134 0z m220-227c-22 0-64-10-64-48 0-31 17-48 48-48 22 0 37 7 48 20 3-10 16-20 24-20l0 16c-8 0-8 13-8 16l0 80c0 19-14 48-52 48-36 0-50-18-50-19l12-10c1 1 11 13 38 13 26 0 36-19 36-32l0-16z m-16-80c-14 0-32 3-32 32 0 31 46 32 48 32l32 0 0-16c0-40-26-48-48-48z m128 392l-512 0 0-512 512 0z m-16-496l-480 0 0 480 480 0z m-448 64l416 0 0-16-416 0z"/>
<glyph unicode="&#57355;" d="M240 85l38 107 156 0 38-107 16 6-122 341-20 0-122-341z m116 326l73-203-146 0z m-210 23l12 13-56 57-12 0-56-57 12-12 42 42 0-442-42 43-12-13 56-57 12 0 56 57-12 12-42-42 0 442z"/>
<glyph unicode="&#57356;" d="M40 240l0-144 208 0 0-96 16 0 0 96 208 0 0 144-208 0 0 32 160 0 0 144-160 0 0 96-16 0 0-96-160 0 0-144 160 0 0-32z m64 160l304 0 0-112-304 0z m352-288l-400 0 0 112 400 0z"/>
<glyph unicode="&#57357;" d="M0 512l16 0 0-512-16 0z m480-272l-432 0 0-144 432 0z m-16-128l-400 0 0 112 400 0z m-416 304l0-144 336 0 0 144z m320-128l-304 0 0 112 304 0z"/>
<glyph unicode="&#57358;" d="M496 512l16 0 0-512-16 0z m-32-272l-432 0 0-144 432 0z m-16-128l-400 0 0 112 400 0z m16 304l-336 0 0-144 336 0z m-16-128l-304 0 0 112 304 0z"/>
<glyph unicode="&#57359;" d="M160 472l-64 0 0-432 64 0 0-40 16 0 0 40 64 0 0 432-64 0 0 40-16 0z m64-416l-112 0 0 400 112 0z m48 32l64 0 0-88 16 0 0 88 64 0 0 336-64 0 0 88-16 0 0-88-64 0z m16 320l112 0 0-304-112 0z"/>
<glyph unicode="&#57360;" d="M272 512l0-512 16 0 0 88 128 0 0 336-128 0 0 88z m128-104l0-304-112 0 0 304z m-304 104l0-512 16 0 0 40 128 0 0 432-128 0 0 40z m128-56l0-400-112 0 0 400z"/>
<glyph unicode="&#57361;" d="M240 0l0 512-16 0 0-40-128 0 0-432 128 0 0-40z m-128 56l0 400 112 0 0-400z m304-56l0 512-16 0 0-88-128 0 0-336 128 0 0-88z m-128 104l0 304 112 0 0-304z"/>
<glyph unicode="&#57362;" d="M240 440l272 0 0-16-272 0z m-64-80l248 0 0-16-248 0z m0-80l336 0 0-16-336 0z m0-80l272 0 0-16-272 0z m0-80l336 0 0-16-336 0z m0-80l288 0 0-16-288 0z m-54 342l13-12 57 56 0 12-57 56-12-12 42-42-165 0 0-16 165 0z"/>
<glyph unicode="&#57363;" d="M240 464l272 0 0-16-272 0z m0-80l176 0 0-16-176 0z m0-80l272 0 0-16-272 0z m0-80l200 0 0-16-200 0z m0-80l272 0 0-16-272 0z m0-80l216 0 0-16-216 0z m-48 448l16 0 0-512-16 0z m-102-306l13-12 57 56 0 12-57 56-12-12 42-42-133 0 0-16 133 0z"/>
<glyph unicode="&#57364;" d="M0 464l272 0 0-16-272 0z m96-80l176 0 0-16-176 0z m-96-80l272 0 0-16-272 0z m72-80l200 0 0-16-200 0z m-72-80l272 0 0-16-272 0z m56-80l216 0 0-16-216 0z m248 448l16 0 0-512-16 0z m118-206l-13 12-57-56 0-12 57-56 12 12-42 42 133 0 0 16-133 0z"/>
<glyph unicode="&#57365;" d="M256 472c-141 0-256-74-256-164 0-63 56-118 139-146-16-7-27-19-27-34 0-22 25-40 56-40 12 0 22 2 31 7 4-4 9-10 9-23 0-15-7-16-8-16l0-16c8 0 24 7 24 32 0 16-6 26-11 32 7 6 11 15 11 24 0 6-2 12-6 18 13-1 25-2 38-2 141 0 256 74 256 164 0 90-115 164-256 164z m-128-344c0 13 18 24 40 24 22 0 40-11 40-24 0-13-18-24-40-24-22 0-40 11-40 24z m128 32c-132 0-240 66-240 148 0 82 108 148 240 148 132 0 240-66 240-148 0-82-108-148-240-148z"/>
<glyph unicode="&#57366;" d="M256 417l-261-113 125-50-125-54 261-105 261 105-125 54 125 50z m219-217l-219-87-219 87 104 45 115-46 115 46z m-104 63l0 0-115-46-115 46 0 0 0 0-104 41 219 95 219-95-104-41z"/>
<glyph unicode="&#57367;" d="M256 465l-261-113 125-50-125-54 125-50-125-54 261-105 261 105-125 54 125 50-125 54 125 50z m219-321l-219-87-219 87 104 45 115-46 115 46z m0 104l-104-41 0 0 0 0-115-46-115 46 0 0 0 0-104 41 104 45 115-46 115 46z m-104 63l0 0-115-46-115 46 0 0 0 0-104 41 219 95 219-95-104-41z"/>
<glyph unicode="&#57368;" d="M0 0l512 0 0 512-512 0z m16 496l480 0 0-480-480 0z"/>
<glyph unicode="&#57369;" d="M248 512l-248 0 0-512 512 0 0 512z m0-496l-232 0 0 480 232 0z m248 480l0-480-232 0 0 480z"/>
<glyph unicode="&#57370;" d="M336 512l-336 0 0-512 512 0 0 512z m-176-496l-144 0 0 480 144 0z m176 0l-160 0 0 480 160 0z m160 480l0-480-144 0 0 480z"/>
<glyph unicode="&#57371;" d="M248 512l-248 0 0-512 512 0 0 512z m-232-16l232 0 0-232-232 0z m232-480l-232 0 0 232 232 0z m248 0l-232 0 0 232 232 0z m0 480l0-232-232 0 0 232z"/>
<glyph unicode="&#57372;" d="M368 512l-368 0 0-512 512 0 0 512z m-248-496l-104 0 0 480 104 0z m128 0l-112 0 0 480 112 0z m120 0l-104 0 0 480 104 0z m128 480l0-480-112 0 0 480z"/>
<glyph unicode="&#57373;" d="M0 392l0-392 512 0 0 512-512 0z m496-376l-480 0 0 112 480 0z m0 128l-480 0 0 104 480 0z m0 120l-480 0 0 112 480 0z m-480 232l480 0 0-104-480 0z"/>
<glyph unicode="&#57374;" d="M248 512l-248 0 0-512 512 0 0 512z m-232-16l232 0 0-112-232 0z m0-128l232 0 0-104-232 0z m0-120l232 0 0-112-232 0z m232-232l-232 0 0 104 232 0z m248 0l-232 0 0 104 232 0z m0 120l-232 0 0 112 232 0z m0 128l-232 0 0 104 232 0z m0 232l0-112-232 0 0 112z"/>
<glyph unicode="&#57375;" d="M0 400l0-400 512 0 0 512-512 0z m496-384l-480 0 0 368 480 0z m-480 480l480 0 0-96-480 0z"/>
<glyph unicode="&#57376;" d="M0 400l0-400 512 0 0 512-512 0z m248-384l-232 0 0 368 232 0z m248 0l-232 0 0 368 232 0z m-480 480l480 0 0-96-480 0z"/>
<glyph unicode="&#57377;" d="M0 400l0-400 512 0 0 512-512 0z m160-384l-144 0 0 368 144 0z m176 0l-160 0 0 368 160 0z m160 0l-144 0 0 368 144 0z m-480 480l480 0 0-96-480 0z"/>
<glyph unicode="&#57378;" d="M0 400l0-400 512 0 0 512-512 0z m16-16l232 0 0-176-232 0z m232-368l-232 0 0 176 232 0z m248 0l-232 0 0 176 232 0z m0 192l-232 0 0 176 232 0z m-480 288l480 0 0-96-480 0z"/>
<glyph unicode="&#57379;" d="M0 400l0-400 512 0 0 512-512 0z m120-384l-104 0 0 368 104 0z m128 0l-112 0 0 368 112 0z m120 0l-104 0 0 368 104 0z m128 0l-112 0 0 368 112 0z m-480 480l480 0 0-96-480 0z"/>
<glyph unicode="&#57380;" d="M0 400l0-400 512 0 0 512-512 0z m16-16l152 0 0-368-152 0z m168-368l0 184 312 0 0-184z m312 200l-312 0 0 168 312 0z m-480 280l480 0 0-96-480 0z"/>
<glyph unicode="&#57381;" d="M0 400l0-400 512 0 0 512-512 0z m328-184l-312 0 0 168 312 0z m-312-16l312 0 0-184-312 0z m480-184l-152 0 0 368 152 0z m-480 480l480 0 0-96-480 0z"/>
<glyph unicode="&#57382;" d="M0 400l0-400 512 0 0 512-512 0z m248-384l-232 0 0 368 232 0z m120 0l-104 0 0 368 104 0z m128 0l-112 0 0 368 112 0z m-480 480l480 0 0-96-480 0z"/>
<glyph unicode="&#57383;" d="M0 400l0-400 512 0 0 512-512 0z m248-384l-232 0 0 368 232 0z m120 0l-104 0 0 368 104 0z m128 0l-112 0 0 368 112 0z m-480 480l480 0 0-96-480 0z"/>
<glyph unicode="&#57384;" d="M0 400l0-400 512 0 0 512-512 0z m16-16l152 0 0-368-152 0z m480-368l-312 0 0 368 312 0z m-480 480l480 0 0-96-480 0z"/>
<glyph unicode="&#57385;" d="M0 400l0-400 512 0 0 512-512 0z m16-16l312 0 0-368-312 0z m480-368l-152 0 0 368 152 0z m-480 480l480 0 0-96-480 0z"/>
<glyph unicode="&#57386;" d="M160 512l-160 0 0-512 512 0 0 512z m0-496l-144 0 0 480 144 0z m336 480l0-480-320 0 0 480z"/>
<glyph unicode="&#57387;" d="M336 512l-336 0 0-512 512 0 0 512z m0-496l-320 0 0 480 320 0z m160 480l0-480-144 0 0 480z"/>
<glyph unicode="&#57388;" d="M80 512l0-336c0-97 79-176 176-176 97 0 176 79 176 176l0 336-120 0 0-336c0-31-25-56-56-56-31 0-56 25-56 56l0 336z m104-16l0-56-88 0 0 56z m232 0l0-56-88 0 0 56z m-160-392c40 0 72 32 72 72l0 248 88 0 0-248c0-88-72-160-160-160-88 0-160 72-160 160l0 248 88 0 0-248c0-40 32-72 72-72z"/>
<glyph unicode="&#57389;" d="M264 432l0 32-16 0 0-32-163 0-85-85 0-267 248 0 0-32 16 0 0 32 248 0 0 267-85 85z m168-27l53-53-53 0z m-352 0l0-53-53 0z m-64-309l0 240 80 0 0 80 152 0 0-320z m248 0l0 320 152 0 0-80 80 0 0-240z"/>
<glyph unicode="&#57390;" d="M170 246l-30-31c-8-2-36-11-65-33-52-39-74-167-75-173l-1-9 9 0c132 0 200 125 207 139l31 32 269 326-18 18z m6-17l53-53-21-21-53 53z m-158-213c6 31 28 124 67 154 23 17 47 26 57 29l56-57c-12-23-72-120-180-126z m221 172l-51 51 294 243z"/>
<glyph unicode="&#57391;" d="M216 512c-26 0-48-22-48-48l0-101-152-149 0-12 202-202 12 0 206 207 53 8 5 16-224 225-6 0 0 8c0 26-22 48-48 48z m-32-48c0 18 14 32 32 32 18 0 32-14 32-32l0-21-64-64z m287-234l-40-6-5-2-202-203-189 189 213 213 0-125 16 0 0 141z"/>
<glyph unicode="&#57392;" d="M496 312l0 136-48 0 0 64-400 0 0-64-32 0 0-16 32 0 0-72 400 0 0 72 32 0 0-104-232 0 0-144-32 0 0-184 80 0 0 184-32 0 0 128z m-64 64l-368 0 0 120 368 0z m-152-208l0-152-48 0 0 152z"/>
<glyph unicode="&#57393;" d="M416 0l0 512-184 0c-1 0-136-2-136-136 0-134 135-136 136-136l88 0 0-240 16 0 0 496 64 0 0-496z m-184 256c-5 0-120 2-120 120 0 118 115 120 120 120l88 0 0-240z"/>
<glyph unicode="&#57394;" d="M0 464l512 0 0-16-512 0z m0-80l368 0 0-16-368 0z m0-80l512 0 0-16-512 0z m0-80l400 0 0-16-400 0z m0-80l512 0 0-16-512 0z m0-80l432 0 0-16-432 0z"/>
<glyph unicode="&#57395;" d="M0 464l512 0 0-16-512 0z m144-80l368 0 0-16-368 0z m-144-80l512 0 0-16-512 0z m112-80l400 0 0-16-400 0z m-112-80l512 0 0-16-512 0z m80-80l432 0 0-16-432 0z"/>
<glyph unicode="&#57396;" d="M0 464l512 0 0-16-512 0z m72-80l368 0 0-16-368 0z m-72-80l512 0 0-16-512 0z m56-80l400 0 0-16-400 0z m-56-80l512 0 0-16-512 0z m40-80l432 0 0-16-432 0z"/>
<glyph unicode="&#57397;" d="M0 464l512 0 0-16-512 0z m0-80l512 0 0-16-512 0z m0-80l512 0 0-16-512 0z m0-80l512 0 0-16-512 0z m0-80l512 0 0-16-512 0z m0-80l512 0 0-16-512 0z"/>
<glyph unicode="&#57398;" d="M0 464l512 0 0-16-512 0z m0-80l512 0 0-16-512 0z m0-80l512 0 0-16-512 0z m0-80l512 0 0-16-512 0z m0-80l512 0 0-16-512 0z m80-80l352 0 0-16-352 0z"/>
<glyph unicode="&#57399;" d="M0 464l512 0 0-16-512 0z m0-80l512 0 0-16-512 0z m0-80l512 0 0-16-512 0z m0-80l512 0 0-16-512 0z m0-80l512 0 0-16-512 0z m0-80l352 0 0-16-352 0z"/>
<glyph unicode="&#57400;" d="M0 464l512 0 0-16-512 0z m0-80l512 0 0-16-512 0z m0-80l512 0 0-16-512 0z m0-80l512 0 0-16-512 0z m0-80l512 0 0-16-512 0z m160-80l352 0 0-16-352 0z"/>
<glyph unicode="&#57401;" d="M176 472l336 0 0-16-336 0z m0-80l272 0 0-16-272 0z m0-80l336 0 0-16-336 0z m0-80l288 0 0-16-288 0z m280-96l8 0 0-8 16 0 0 24-24 0z m-144 16l32 0 0-16-32 0z m-96 0l32 0 0-16-32 0z m144 0l32 0 0-16-32 0z m-96 0l32 0 0-16-32 0z m144 0l32 0 0-16-32 0z m-216-16l8 0 0 16-24 0 0-24 16 0z m-16-24l16 0 0-24-16 0z m0-56l24 0 0 16-8 0 0 8-16 0z m232 16l32 0 0-16-32 0z m-48 0l32 0 0-16-32 0z m-48 0l32 0 0-16-32 0z m-48 0l32 0 0-16-32 0z m-48 0l32 0 0-16-32 0z m248 0l-8 0 0-16 24 0 0 24-16 0z m0 40l16 0 0-24-16 0z m-390-58l13-12 57 56 0 12-57 56-12-12 42-42-117 0 0-16 117 0z"/>
<glyph unicode="&#57402;" d="M176 288l336 0 0-16-336 0z m0-80l272 0 0-16-272 0z m0-80l336 0 0-16-336 0z m0-80l288 0 0-16-288 0z m304 400l-24 0 0-16 8 0 0-8 16 0z m-120 0l32 0 0-16-32 0z m-48 0l32 0 0-16-32 0z m96 0l32 0 0-16-32 0z m-144 0l32 0 0-16-32 0z m-48 0l32 0 0-16-32 0z m-24-16l8 0 0 16-24 0 0-24 16 0z m-16-24l16 0 0-24-16 0z m0-56l24 0 0 16-8 0 0 8-16 0z m40 16l32 0 0-16-32 0z m48 0l32 0 0-16-32 0z m48 0l32 0 0-16-32 0z m96 0l32 0 0-16-32 0z m-48 0l32 0 0-16-32 0z m96-16l24 0 0 24-16 0 0-8-8 0z m8 56l16 0 0-24-16 0z m-390-58l13-12 57 56 0 12-57 56-12-12 42-42-117 0 0-16 117 0z"/>
<glyph unicode="&#57403;" d="M336 512l-336 0 0-336 176 0 0-176 336 0 0 336-176 0z m-320-16l304 0 0-160-144 0 0-144-160 0z m304-176l0-128-128 0 0 128z m176-304l-304 0 0 160 144 0 0 144 160 0z"/>
<glyph unicode="&#57404;" d="M336 320l24 0 0 16-24 0 0 24-16 0 0-24-144 0 0-144-24 0 0-16 24 0 0-24 16 0 0 24 144 0z m-144-128l0 128 128 0 0-128z m-56 320l32 0 0-16-32 0z m-120-16l8 0 0 16-24 0 0-24 16 0z m168 16l32 0 0-16-32 0z m-128-320l32 0 0-16-32 0z m32 320l32 0 0-16-32 0z m16-320l32 0 0-16-32 0z m-104 184l16 0 0-32-16 0z m40 136l32 0 0-16-32 0z m-40-40l16 0 0-32-16 0z m8-280l32 0 0-16-32 0z m-8 232l16 0 0-32-16 0z m0-96l16 0 0-32-16 0z m280 184l32 0 0-16-32 0z m40-104l16 0 0-32-16 0z m-88 104l32 0 0-16-32 0z m-232-280l16 0 0-32-16 0z m320 224l16 0 0-32-16 0z m-320-176l16 0 0-32-16 0z m320 224l16 0 0-32-16 0z m192-480l-16 0 0-8-8 0 0-16 24 0z m-16 48l16 0 0-32-16 0z m-24 264l32 0 0-16-32 0z m24-120l16 0 0-32-16 0z m0-48l16 0 0-32-16 0z m0-48l16 0 0-32-16 0z m-248-104l32 0 0-16-32 0z m48 0l32 0 0-16-32 0z m-96 0l32 0 0-16-32 0z m296 248l16 0 0-32-16 0z m-320-128l16 0 0-32-16 0z m168-120l32 0 0-16-32 0z m-168 24l16 0 0-32-16 0z m264-24l32 0 0-16-32 0z m56 296l16 0 0-32-16 0z m-104-296l32 0 0-16-32 0z m-16 320l32 0 0-16-32 0z m48 0l32 0 0-16-32 0z m-248-248l16 0 0-32-16 0z"/>
<glyph unicode="&#57405;" d="M400 336l32 0 0-16-32 0z m48 0l24 0 0-16-24 0z m-88 0l24 0 0-16-24 0z m152 0l-24 0 0-16 8 0 0-8 16 0z m-16-264l16 0 0-32-16 0z m0 40l16 0 0-24-16 0z m0 96l16 0 0-32-16 0z m0 40l16 0 0-24-16 0z m0 48l16 0 0-32-16 0z m0-136l16 0 0-32-16 0z m0-144l-8 0 0-16 24 0 0 24-16 0z m-280 0l32 0 0-16-32 0z m48 0l24 0 0-16-24 0z m40 0l32 0 0-16-32 0z m136 0l32 0 0-16-32 0z m-88 0l32 0 0-16-32 0z m48 0l24 0 0-16-24 0z m-224-16l24 0 0 16-8 0 0 8-16 0z m0 112l16 0 0-32-16 0z m0-48l16 0 0-24-16 0z m0 88l16 0 0-24-16 0z m0 16l16 0 0 152 152 0 0 16-8 0 0 176-336 0 0-336 176 0z m-160 328l304 0 0-160-144 0 0-144-160 0z"/>
<glyph unicode="&#57406;" d="M320 248l16 0 0-32-16 0z m0 48l16 0 0-32-16 0z m0-104l-8 0 0-16 24 0 0 24-16 0z m-56 0l32 0 0-16-32 0z m-48 0l32 0 0-16-32 0z m120 320l-336 0 0-336 176 0 0-176 336 0 0 336-176 0z m160-496l-304 0 0 160 8 0 0 16-8 0 0 8-16 0 0-8-160 0 0 304 304 0 0-160-8 0 0-16 8 0 0-8 16 0 0 8 160 0z m-320 280l16 0 0-32-16 0z m0-48l16 0 0-32-16 0z m0 64l16 0 0 8 8 0 0 16-24 0z m88 24l32 0 0-16-32 0z m-48 0l32 0 0-16-32 0z"/>
<glyph unicode="&#57407;" d="M336 48l32 0 0 96-32 0 0 22 57 106-137 249-137-249 57-106 0-22-32 0 0-96 32 0 0-48 160 0z m-80 257c13 0 24-11 24-24 0-13-11-24-24-24-13 0-24 11-24 24 0 13 11 24 24 24z m-119-33l111 201 0-153c-18-4-32-20-32-39 0-22 18-40 40-40 22 0 40 18 40 40 0 19-14 35-32 39l0 153 111-201-55-102 0-26-128 0 0 26z m23-208l0 64 192 0 0-64z m160-48l-128 0 0 32 128 0z"/>
<glyph unicode="&#57408;" d="M176 166l0-22-32 0 0-96 32 0 0-48 160 0 0 48 32 0 0 96-32 0 0 22 57 106-137 249-137-249z m144-150l-128 0 0 32 128 0z m32 48l-192 0 0 64 192 0z m23 208l-55-102 0-26-128 0 0 26-55 102 119 215z m-127-56l16 0 0 48 48 0 0 16-48 0 0 48-16 0 0-48-48 0 0-16 48 0z"/>
<glyph unicode="&#57409;" d="M176 166l0-22-32 0 0-96 32 0 0-48 160 0 0 48 32 0 0 96-32 0 0 22 57 106-137 249-137-249z m144-150l-128 0 0 32 128 0z m32 48l-192 0 0 64 192 0z m23 208l-55-102 0-26-128 0 0 26-55 102 119 215z m-175 8l112 0 0-16-112 0z"/>
<glyph unicode="&#57410;" d="M74 166l-1-1-75-151 16-16 151 75 350 351-91 91z m17-6l261 261 69-69-261-261z m272 272l21 21 69-69-21-21z m-281-286l64-64-61-30-6 27-27 6z m-38-75l21-6 6-21-53-26z m420 324l-69 69 29 29 69-69z"/>
<glyph unicode="&#57411;" d="M480 522l-162-145-292 49 138-298c-30-2-52-19-52-40 0-22 25-40 56-40 12 0 22 2 31 7 4-4 9-10 9-23 0-15-7-16-8-16l0-16c8 0 24 7 24 32 0 16-6 26-11 32 7 6 11 15 11 24 0 4-1 8-2 12l258 78z m-352-434c0 13 18 24 40 24 22 0 40-11 40-24 0-13-18-24-40-24-22 0-40 11-40 24z m336 102l-252-77c-8 7-18 12-30 14l-128 279 268-47 142 127z"/>
<glyph unicode="&#57412;" d="M0 395l0-358 179 179z m16-38l141-141-141-141z m496-285l-13 0-1 1-1-1-1 0 0-1-9-9 25-25z m-16 136l16 0 0-32-16 0z m0-48l16 0 0-24-16 0z m0 96l16 0 0-32-16 0z m0-136l16 0 0-32-16 0z m0 176l16 0 0-24-16 0z m0 48l16 0 0-32-16 0z m16 51l-25-25 9-9 0-1 1 0 1-1 1 1 13 0z m-109-131l-11 11 21 21 11-11z m64 63l-12 12 21 21 12-12z m-95-95l-12 12 21 21 12-12z m73 96l11-11-21-21-11 11z m-112-112l17-17 11 11-6 6 6 6-11 11z m91-91l11 11 21-21-11-11z m31-32l12 12 21-21-12-12z m-52 75l21-21-11-11-21 21z m-31 32l21-21-12-12-21 21z m-124-160l16 0 0-16-16 0z m0 144l16 0 0-32-16 0z m0 96l16 0 0-32-16 0z m0-48l16 0 0-32-16 0z m0-96l16 0 0-32-16 0z m0-48l16 0 0-32-16 0z m0 288l16 0 0-32-16 0z m0-48l16 0 0-32-16 0z m0 80l16 0 0-16-16 0z m200 23c-46 52-113 81-192 81-87 0-161-35-207-99l14-10c42 60 111 93 193 93 76 0 141-28 184-80l-72 0 0-16 88 0 8 8 0 88-16 0z"/>
<glyph unicode="&#57413;" d="M208 333l179 179-358 0z m0 22l-141 141 282 0z m-144-342l1 1-1 1 0 1-1 0-9 9-25-25 35 0z m104 3l32 0 0-16-32 0z m96 0l24 0 0-16-24 0z m40 0l32 0 0-16-32 0z m-176 0l24 0 0-16-24 0z m-48 0l32 0 0-16-32 0z m136 0l32 0 0-16-32 0z m137 0l-1 0 0-1-1-1 1-1 0-13 35 0-25 25z m-44 40l-21 21 11 11 21-21z m31-32l-21 21 12 12 21-21z m-95 95l-21 21 12 12 21-21z m32-31l-21 21 11 11 21-21z m-75 63l6 6 6-6 11 11-17 17-17-17z m-31-32l-12 12 21 21 12-12z m-43-42l-21-21-11 11 21 21z m-43-20l12-12-21-21-12 12z m75 52l-21-21-11 11 21 21z m-144 159l16 0 0-16-16 0z m32-4l32 0 0-16-32 0z m144 0l32 0 0-16-32 0z m48 0l32 0 0-16-32 0z m48 0l32 0 0-16-32 0z m-144 0l32 0 0-16-32 0z m192 0l32 0 0-16-32 0z m-240 0l32 0 0-16-32 0z m288 4l16 0 0-16-16 0z m29 195l-10-14c60-42 93-111 93-193 0-76-28-141-80-184l0 72-16 0 0-88 8-8 88 0 0 16-65 0c52 46 81 113 81 192 0 87-35 161-99 207z"/>
<glyph unicode="&#57414;" d="M96 85l67 67 13 0 0 16-8 0 0 8-16 0 0-13-67-67-85 0 0-96 96 0z m-16-69l-64 0 0 64 64 0z m336 411l-67-67-13 0 0-16 8 0 0-8 16 0 0 13 67 67 85 0 0 96-96 0z m16 69l64 0 0-64-64 0z m-144-136l32 0 0-16-32 0z m-96 0l32 0 0-16-32 0z m48 0l32 0 0-16-32 0z m-72-16l8 0 0 16-24 0 0-24 16 0z m-16-24l16 0 0-32-16 0z m0-48l16 0 0-32-16 0z m0-48l16 0 0-32-16 0z m88-56l32 0 0-16-32 0z m-48 0l32 0 0-16-32 0z m96 0l32 0 0-16-32 0z m56 0l-8 0 0-16 24 0 0 24-16 0z m0 56l16 0 0-32-16 0z m0 96l16 0 0-32-16 0z m0-48l16 0 0-32-16 0z m-144-8l112 0 0-16-112 0z"/>
<glyph unicode="&#57415;" d="M128 512l32 0 0-16-32 0z m48 0l32 0 0-16-32 0z m48 0l32 0 0-16-32 0z m-192 0l32 0 0-16-32 0z m48 0l32 0 0-16-32 0z m304-496l32 0 0-16-32 0z m112 240l16 0 0-32-16 0z m-128 256l32 0 0-16-32 0z m128-352l16 0 0-32-16 0z m0 144l16 0 0-32-16 0z m-80 208l32 0 0-16-32 0z m-416-48l16 0 0-32-16 0z m0 48l16 0 0-32-16 0z m0-192l16 0 0-32-16 0z m496-208l16 0 0-32-16 0z m-160-96l32 0 0-16-32 0z m160 48l16 0 0-32-16 0z m-496 352l16 0 0-32-16 0z m0-48l16 0 0-32-16 0z m480-352l32 0 0-16-32 0z m16 192l16 0 0-32-16 0z m-64-192l32 0 0-16-32 0z m64 384l16 0 0-32-16 0z m0-48l16 0 0-32-16 0z m-176 160l32 0 0-16-32 0z m144 0l32 0 0-16-32 0z m32-16l16 0 0-32-16 0z m0-48l16 0 0-32-16 0z m-208-432l32 0 0-16-32 0z m-16 496l32 0 0-16-32 0z m-16-256l-256 0 0-256 256 0z m-16-240l-224 0 0 224 224 0z m94 306l114 115 0-69 16 0 0 88-8 8-88 0 0-16 69 0-115-114z"/>
<glyph unicode="&#57416;" d="M0 272l16 0 0 224 480 0 0-480-224 0 0-16 240 0 0 512-512 0z m256-16l-24 0 0-16 8 0 0-8 16 0z m-72 0l32 0 0-16-32 0z m-144 0l32 0 0-16-32 0z m96 0l32 0 0-16-32 0z m-48 0l32 0 0-16-32 0z m-72-16l8 0 0 16-24 0 0-24 16 0z m-16-120l16 0 0-32-16 0z m0 48l16 0 0-32-16 0z m0 48l16 0 0-32-16 0z m0-144l16 0 0-32-16 0z m24-56l-8 0 0 8-16 0 0-24 24 0z m112 0l32 0 0-16-32 0z m-48 0l32 0 0-16-32 0z m96 0l32 0 0-16-32 0z m-144 0l32 0 0-16-32 0z m192-16l24 0 0 24-16 0 0-8-8 0z m8 168l16 0 0-32-16 0z m0 48l16 0 0-32-16 0z m0-96l16 0 0-32-16 0z m0-48l16 0 0-32-16 0z m80 344l0-88 8-8 88 0 0 16-69 0 115 114-12 12-114-115 0 69z"/>
<glyph unicode="&#57417;" d="M152 119c-10 3-20 7-29 11l-7-15c10-4 21-8 31-11z m46-10c-11 1-21 3-31 6l-4-16c11-2 21-5 32-6z m29 314c-11-1-22-2-33-4l3-16c10 2 20 3 31 4z m48-15l1 16c-11 0-22 0-33 0l1-16c10 0 21 0 31 0z m-31-304c-10 0-21 1-31 2l-2-15c11-2 22-2 33-3z m49-14l-2 16c-10-1-20-2-31-2l0-16c11 0 22 1 33 2z m48 8l-3 15c-10-2-21-4-31-6l2-15c11 1 22 3 32 6z m-17 320c-10 2-21 3-32 4l-1-16c10-1 20-2 31-4z m48-12c-10 3-21 6-32 9l-3-16c10-2 20-5 30-8z m-313-258l10 13c-8 6-16 13-22 21l-12-11c7-8 15-16 24-23z m-2 193l-11 11c-8-7-16-16-22-25l13-9c6 8 12 16 20 23z m121 75c-11-2-21-5-32-8l5-15c10 3 20 5 30 7z m-175-135l15-3c3 9 6 18 11 27l-14 8c-6-10-10-21-12-32z m128 122c-11-4-21-8-30-13l7-15c9 5 19 9 28 13z m-45-21c-10-6-19-12-27-19l10-12c7 6 16 12 25 17z m23-246c-10 5-19 10-27 16l-9-14c9-6 18-11 29-16z m-85 48l13 9c-6 9-10 18-14 26l-15-5c4-11 10-21 16-30z m436 152c7-7 13-15 19-23l13 8c-6 9-13 18-21 27z m41-130l-15 7c-4-9-9-17-16-25l13-10c7 9 13 18 18 28z m10 68c-2 11-6 22-11 33l-14-7c4-9 7-19 9-29z m1-18l0 1-16-1c0-10-1-20-4-29l15-5c3 11 5 23 5 34z m-493-22c-2 7-3 15-3 22 0 2 0 5 0 7l-16 1c0-3 0-5 0-8 0-9 1-17 3-26z m398 153c-9 5-19 9-29 13l-6-15c10-3 19-8 28-13z m16-253l-9 14c-8-6-18-11-27-15l6-14c11 4 20 9 30 15z m-45-22l-6 15c-9-4-19-7-29-10l4-15c11 3 21 6 31 10z m71 247c-9 7-18 13-27 19l-9-13c9-6 18-12 25-18z m13-194l-12 11c-7-7-15-13-23-20l9-13c10 7 18 14 26 22z"/>
<glyph unicode="&#57418;" d="M152 32l0 16-14 0-6 10-13-8 10-18z m-116 163l-16 29 14 8 16-29z m47-50l17-29-14-8-17 29z m25-44l16-29-14-8-16 29z m-49 87l16-29-14-8-16 29z m-57 68l10-18 14 8-6 10 6 10-14 8z m57 68l-14 8 16 29 14-8z m49 87l-14 8 16 29 14-8z m-74-131l-14 8 16 29 14-8z m49 87l-14 8 17 29 14-8z m36 95l13-8 6 10 14 0 0 16-23 0z m97 18l32 0 0-16-32 0z m48 0l32 0 0-16-32 0z m-96 0l32 0 0-16-32 0z m144 0l32 0 0-16-32 0z m48 0l0-16 14 0 6-10 13 8-10 18z m93-156l-16 29 14 8 16-29z m-49 87l-16 29 14 8 16-29z m25-44l-17 29 14 8 17-29z m49-87l-16 29 14 8 16-29z m32-24l-10 18-14-8 6-10-6-10 14-8z m-108-192l-14 8 16 29 14-8z m27 81l14-8-17-29-14 8z m24 43l14-8-16-29-14 8z m25 44l14-8-16-29-14 8z m-118-200l23 0 10 18-13 8-6-10-14 0z m-48 16l32 0 0-16-32 0z m-96 0l32 0 0-16-32 0z m48 0l32 0 0-16-32 0z m-96 0l32 0 0-16-32 0z"/>
<glyph unicode="&#57419;" d="M496 104l-8 0 0-16 24 0 0 24-16 0z m-56 0l32 0 0-16-32 0z m-200 0l32 0 0-16-32 0z m-152 0l32 0 0-16-32 0z m200 0l32 0 0-16-32 0z m48 0l32 0 0-16-32 0z m-144 0l32 0 0-16-32 0z m200 0l32 0 0-16-32 0z m-256 0l40 0 0-16-40 0z m-96 0l32 0 0-16-32 0z m-16 0l-8 0 0 8-16 0 0-24 24 0z m-24 56l16 0 0-32-16 0z m0 40l16 0 0-24-16 0z m0 96l16 0 0-32-16 0z m0-48l16 0 0-32-16 0z m0 88l16 0 0-24-16 0z m0 48l16 0 0-32-16 0z m16 24l8 0 0 16-24 0 0-24 16 0z m424 16l32 0 0-16-32 0z m-248 0l32 0 0-16-32 0z m200 0l32 0 0-16-32 0z m-352 0l32 0 0-16-32 0z m48 0l32 0 0-16-32 0z m48 0l40 0 0-16-40 0z m104 0l32 0 0-16-32 0z m96 0l32 0 0-16-32 0z m-48 0l32 0 0-16-32 0z m200-16l8 0 0-8 16 0 0 24-24 0z m8-72l16 0 0-24-16 0z m0-88l16 0 0-32-16 0z m0-48l16 0 0-24-16 0z m0-40l16 0 0-32-16 0z m0 224l16 0 0-32-16 0z m0-88l16 0 0-32-16 0z"/>
<glyph unicode="&#57420;" d="M479 116c8 8 15 17 21 27l-14 7c-5-8-11-16-18-22z m13 231l15 5c-4 11-9 21-16 30l-13-9c6-8 11-17 14-26z m-12 48c-8 8-18 14-28 19l-7-14c9-4 17-10 24-16z m11-231l15-6c4 11 6 23 6 34l0 0-16 0c0-10-2-19-5-28z m-339-60l32 0 0-16-32 0z m64 320l32 0 0-16-32 0z m-16-320l24 0 0-16-24 0z m-32 320l32 0 0-16-32 0z m-65-336l33 0 0 16-32 0z m17 336l32 0 0-16-32 0z m120-320l32 0 0-16-32 0z m-137 304l0 16c-12 0-23-2-34-6l6-15c9 3 18 5 28 5z m233-304l32 0 0-16-32 0z m48 0l0-16 24 0c3 0 6 0 10 0l-2 16c-3 0-5 0-8 0z m-80 320l32 0 0-16-32 0z m-16-320l32 0 0-16-32 0z m-24 320l32 0 0-16-32 0z m88 0l32 0 0-16-32 0z m144-136l16 0 0-32-16 0z m0-48l16 0 0-32-16 0z m-62-149c11 3 22 8 31 14l-8 14c-8-6-17-10-27-12z m-2 314l4 15c-9 3-19 4-28 4l-8 0 0-16 8 0c8 0 16-1 24-3z m-432-173l16 0 0-32-16 0z m52-130c10-6 21-10 32-12l3 16c-9 1-18 5-27 10z m459 233l-16-2c1-4 1-9 1-13l0-16 16 0 0 16c0 5 0 10-1 15z m-511-55l16 0 0-32-16 0z m38-169l10 13c-7 6-14 13-19 21l-13-8c6-10 13-18 22-26z m23 286l-7 14c-10-6-19-13-27-21l12-11c6 7 14 13 22 18z m-61-212c1-11 4-22 8-33l15 6c-4 9-6 19-7 28z m30 183l-13 8c-7-9-11-20-14-31l16-4c2 10 6 19 11 27z m-14-48c0 2 0 5 0 7l-16 1c0-2 0-5 0-8l0-24 16 0z"/>
<glyph unicode="&#57421;" d="M256 88c141 0 256 75 256 168 0 93-115 168-256 168-141 0-256-75-256-168 0-93 115-168 256-168z m0 320c132 0 240-68 240-152 0-84-108-152-240-152-132 0-240 68-240 152 0 84 108 152 240 152z"/>
<glyph unicode="&#57422;" d="M383 32l127 224-127 224-254 0-127-224 127-224z m-245 432l236 0 118-208-118-208-236 0-118 208z"/>
<glyph unicode="&#57423;" d="M512 424l-512 0 0-336 512 0z m-16-320l-480 0 0 304 480 0z"/>
<glyph unicode="&#57424;" d="M408 424l-304 0c-57 0-104-47-104-104l0-128c0-57 47-104 104-104l304 0c57 0 104 47 104 104l0 128c0 57-47 104-104 104z m88-232c0-49-39-88-88-88l-304 0c-49 0-88 39-88 88l0 128c0 49 39 88 88 88l304 0c49 0 88-39 88-88z"/>
<glyph unicode="&#57425;" d="M11 33l280 112 4 3 64 120-1 11-56 57-12 0-288-289z m285 284l46-46-60-113-241-96z m86-26l128 144 0 12-48 49-12 0-138-138 0-12 57-56z m74 186l37-37-117-132-45 44z"/>
<glyph unicode="&#57426;" d="M480 336c18 0 32 14 32 32 0 18-14 32-32 32-15 0-27-10-31-24l-145 0 0 40-96 0 0-40-145 0c-4 14-16 24-31 24-18 0-32-14-32-32 0-18 14-32 32-32 15 0 27 10 31 24l75 0c-83-39-96-139-98-168l-40 0 0-96 96 0 0 96-40 0c1 15 5 48 20 81 26 55 70 84 132 87l0-40 96 0 0 40c62-3 106-32 132-87 15-33 19-66 20-81l-40 0 0-96 96 0 0 96-40 0c-2 29-15 129-98 168l75 0c4-14 16-24 31-24z m0 48c9 0 16-7 16-16 0-9-7-16-16-16-9 0-16 7-16 16 0 9 7 16 16 16z m-448-32c-9 0-16 7-16 16 0 9 7 16 16 16 9 0 16-7 16-16 0-9-7-16-16-16z m48-240l-64 0 0 64 64 0z m208 224l-64 0 0 64 64 0z m208-224l-64 0 0 64 64 0z"/>
<glyph unicode="&#57427;" d="M416 472l-320 0 0 40-96 0 0-96 40 0 0-320-40 0 0-96 96 0 0 40 320 0 0-40 96 0 0 96-40 0 0 320 40 0 0 96-96 0z m-400 24l64 0 0-64-64 0z m64-480l-64 0 0 64 64 0z m416 0l-64 0 0 64 64 0z m-40 80l-40 0 0-40-320 0 0 40-40 0 0 320 40 0 0 40 320 0 0-40 40 0z m-24 400l64 0 0-64-64 0z"/>
<glyph unicode="&#57428;" d="M96 85l123 123 85 0 0 85 123 123 85 0 0 96-96 0 0-85-123-123-85 0 0-85-123-123-85 0 0-96 96 0z m336 411l64 0 0-64-64 0z m-208-208l64 0 0-64-64 0z m-144-272l-64 0 0 64 64 0z"/>
<glyph unicode="&#57429;" d="M96 85l331 331 85 0 0 96-96 0 0-85-331-331-85 0 0-96 96 0z m336 411l64 0 0-64-64 0z m-352-480l-64 0 0 64 64 0z"/>
<glyph unicode="&#57430;" d="M0 16l512 0 0-16-512 0z m240 32l0 432-144 0 0-432z m-128 416l112 0 0-400-112 0z m304-416l0 336-144 0 0-336z m-128 320l112 0 0-304-112 0z"/>
<glyph unicode="&#57431;" d="M416 424l-144 0 0-160-32 0 0 208-144 0 0-208-96 0 0-16 96 0 0-208 144 0 0 208 32 0 0-160 144 0 0 160 96 0 0 16-96 0z m-192-368l-112 0 0 400 112 0z m176 48l-112 0 0 304 112 0z"/>
<glyph unicode="&#57432;" d="M0 512l512 0 0-16-512 0z m240-480l0 432-144 0 0-432z m-128 416l112 0 0-400-112 0z m304 16l-144 0 0-336 144 0z m-16-320l-112 0 0 304 112 0z"/>
<glyph unicode="&#57433;" d="M424 416l-336 0 0-128-88 0 0-16 512 0 0 16-88 0z m-320-128l0 112 304 0 0-112z m368-48l-432 0 0-128-40 0 0-16 512 0 0 16-40 0z m-416-128l0 112 400 0 0-112z"/>
<glyph unicode="&#57434;" d="M88 272l336 0 0 64 88 0 0 16-88 0 0 64-336 0 0-64-88 0 0-16 88 0z m16 128l304 0 0-112-304 0z m-64-304l432 0 0 64 40 0 0 16-40 0 0 64-432 0 0-64-40 0 0-16 40 0z m16 128l400 0 0-112-400 0z"/>
<glyph unicode="&#57435;" d="M40 240l-40 0 0-16 40 0 0-128 432 0 0 128 40 0 0 16z m416-128l-400 0 0 112 400 0z m-368 304l-88 0 0-16 88 0 0-128 336 0 0 128 88 0 0 16z m320-128l-304 0 0 112 304 0z"/>
<glyph unicode="&#57436;" d="M136 262l0-12 114-88 14 6 0 176-14 6z m112-78l-91 72 91 72z m48 78l0-12 114-88 14 6 0 176-14 6z m112-78l-91 72 91 72z m-320 144l16 0 0-144-16 0z m168 184c-68 0-133-27-181-75-48-48-75-113-75-181 0-68 27-133 75-181 48-48 113-75 181-75 68 0 133 27 181 75 48 48 75 113 75 181 0 68-27 133-75 181-48 48-113 75-181 75z m170-426c-46-45-106-70-170-70-64 0-124 25-170 70-45 46-70 106-70 170 0 64 25 124 70 170 46 45 106 70 170 70 64 0 124-25 170-70 45-46 70-106 70-170 0-64-25-124-70-170z"/>
<glyph unicode="&#57437;" d="M408 312c0 70-48 129-112 146l0 54-80 0 0-54c-64-17-112-76-112-146l0-149-56-56 0-43 128 0c4-36 35-64 72-64 37 0 68 28 72 64l144 0 0 43-56 56z m-16-120l-272 0 0 32 272 0z m-160 304l48 0 0-34c-8 1-16 2-24 2-8 0-16-1-24-2z m24-48c75 0 136-61 136-136l0-72-272 0 0 72c0 75 61 136 136 136z m-8-432c-28 0-51 21-55 48l110 0c-4-27-27-48-55-48z m200 85l0-21-384 0 0 21 56 56 0 19 272 0 0-19z"/>
<glyph unicode="&#57438;" d="M256 512c-68 0-133-27-181-75-48-48-75-113-75-181 0-68 27-133 75-181 48-48 113-75 181-75 0 0 0 0 0 0l0 0c141 0 256 115 256 256 0 68-27 133-75 181-48 48-113 75-181 75z m-170-86c16 15 34 29 53 39l91-159c-5-3-10-6-14-10-4-4-7-9-9-14l-157 97c10 17 22 33 36 47z m170-210c-11 0-21 4-28 12-16 15-16 41 0 56 7 8 17 12 28 12 11 0 21-4 28-12 16-15 16-41 0-56-7-8-17-12-28-12z m0-200l0-8 0 8c0 0 0 0 0 0-64 0-124 25-170 70-45 46-70 106-70 170 0 39 9 76 26 109l159-98c-3-18 2-37 15-51 11-10 25-16 40-16 4 0 7 0 11 1l98-159c-33-16-69-26-109-26z m123 34l-97 157c5 2 10 5 14 9 4 4 7 9 9 14l157-97c-20-34-49-63-83-83z m91 97l-159 98c3 18-2 37-15 51-11 10-25 16-40 16-4 0-7 0-11-1l-92 162c32 15 67 23 103 23 64 0 124-25 170-70 45-46 70-106 70-170 0-39-10-76-26-109z"/>
<glyph unicode="&#57439;" d="M274 198c-22-22-62-30-84-8-11 10-17 26-17 42 0 16 6 32 17 42l224 224-12 12-224-224c-13-14-21-33-21-54 0-18 6-35 16-48l-111-111c-6 5-14 7-22 7-22 0-40-18-40-40 0-22 18-40 40-40 22 0 40 18 40 40 0 8-2 16-7 22l111 111c12-9 26-12 40-12 22 0 46 10 62 25l224 224-12 12z m-234-182c-13 0-24 11-24 24 0 13 11 24 24 24 13 0 24-11 24-24 0-13-11-24-24-24z"/>
<glyph unicode="&#57440;" d="M250 360l-88-114 6-14 176 0 6 14-88 114z m-66-112l72 91 72-91z m-8-48l160 0 0-16-160 0z m80 312c-68 0-133-27-181-75-48-48-75-113-75-181 0-68 27-133 75-181 48-48 113-75 181-75 68 0 133 27 181 75 48 48 75 113 75 181 0 68-27 133-75 181-48 48-113 75-181 75z m170-426c-46-45-106-70-170-70-64 0-124 25-170 70-45 46-70 106-70 170 0 64 25 124 70 170 46 45 106 70 170 70 64 0 124-25 170-70 45-46 70-106 70-170 0-64-25-124-70-170z"/>
<glyph unicode="&#57441;" d="M248 344l0-176 14-6 114 88 0 12-114 88z m16-16l91-72-91-72z m-176 16l0-176 14-6 114 88 0 12-114 88z m16-16l91-72-91-72z m304 0l16 0 0-144-16 0z m-152 184c-68 0-133-27-181-75-48-48-75-113-75-181 0-68 27-133 75-181 48-48 113-75 181-75 68 0 133 27 181 75 48 48 75 113 75 181 0 68-27 133-75 181-48 48-113 75-181 75z m170-426c-46-45-106-70-170-70-64 0-124 25-170 70-45 46-70 106-70 170 0 64 25 124 70 170 46 45 106 70 170 70 64 0 124-25 170-70 45-46 70-106 70-170 0-64-25-124-70-170z"/>
<glyph unicode="&#57442;" d="M280 344l0-176 14-6 114 88 0 12-114 88z m16-16l91-72-91-72z m-176 16l0-176 14-6 114 88 0 12-114 88z m16-16l91-72-91-72z m120 184c-68 0-133-27-181-75-48-48-75-113-75-181 0-68 27-133 75-181 48-48 113-75 181-75 68 0 133 27 181 75 48 48 75 113 75 181 0 68-27 133-75 181-48 48-113 75-181 75z m170-426c-46-45-106-70-170-70-64 0-124 25-170 70-45 46-70 106-70 170 0 64 25 124 70 170 46 45 106 70 170 70 64 0 124-25 170-70 45-46 70-106 70-170 0-64-25-124-70-170z"/>
<glyph unicode="&#57443;" d="M424 256l-8 0 0 40c0 1-2 136-160 136-158 0-160-135-160-136l0-40-8 0c-49 0-88-39-88-88 0-49 39-88 88-88l24 0 0 216c0 5 2 120 144 120 142 0 144-115 144-120l0-216 24 0c49 0 88 39 88 88 0 49-39 88-88 88z m-328-160l-8 0c-40 0-72 32-72 72 0 40 32 72 72 72l8 0z m328 0l-8 0 0 144 8 0c40 0 72-32 72-72 0-40-32-72-72-72z"/>
<glyph unicode="&#57444;" d="M120 0l272 0 0 512-272 0z m16 16l0 200 240 0 0-200z m0 216l0 232 240 0 0-232z m240 264l0-16-240 0 0 16z m-124-296c-46 0-84-38-84-84 0-46 38-84 84-84 46 0 84 38 84 84 0 46-38 84-84 84z m0-152c-37 0-68 31-68 68 0 37 31 68 68 68 37 0 68-31 68-68 0-37-31-68-68-68z m0 96c-15 0-28-13-28-28 0-15 13-28 28-28 15 0 28 13 28 28 0 15-13 28-28 28z m0-40c-7 0-12 5-12 12 0 7 5 12 12 12 7 0 12-5 12-12 0-7-5-12-12-12z"/>
<glyph unicode="&#57445;" d="M88 0l336 0 0 512-336 0z m16 496l304 0 0-480-304 0z m152-216c-57 0-104-47-104-104 0-57 47-104 104-104 57 0 104 47 104 104 0 57-47 104-104 104z m0-192c-49 0-88 39-88 88 0 49 39 88 88 88 49 0 88-39 88-88 0-49-39-88-88-88z m0 240c31 0 56 25 56 56 0 31-25 56-56 56-31 0-56-25-56-56 0-31 25-56 56-56z m0 96c22 0 40-18 40-40 0-22-18-40-40-40-22 0-40 18-40 40 0 22 18 40 40 40z m0-220c-15 0-28-13-28-28 0-15 13-28 28-28 15 0 28 13 28 28 0 15-13 28-28 28z m0-40c-7 0-12 5-12 12 0 7 5 12 12 12 7 0 12-5 12-12 0-7-5-12-12-12z"/>
<glyph unicode="&#57446;" d="M360 512c-66 0-120-54-120-120 0-13 2-26 6-38l-209-210 32-32-32-32 80-80 46 0 173 173 29-29-51-50 12-12 61 62-51 51-179-179-34 0-64 64 21 21 32-32 210 209c12-4 25-6 38-6 66 0 120 54 120 120 0 66-54 120-120 120z m-301-368l133 133 53-53-133-133z m197 91l-53 53 50 50c12-23 30-41 53-53z m104 53c-57 0-104 47-104 104 0 57 47 104 104 104 57 0 104-47 104-104 0-57-47-104-104-104z"/>
<glyph unicode="&#57447;" d="M136 304l-16 0c0-66 62-131 128-136l0-152-112 0 0-16 240 0 0 16-112 0 0 152c66 5 128 70 128 136l-16 0c0-59-61-120-120-120-59 0-120 61-120 120z m192-8l0 144c0 40-32 72-72 72-40 0-72-32-72-72l0-144c0-40 32-72 72-72 40 0 72 32 72 72z m-128 0l0 24 32 0 0 16-32 0 0 64 32 0 0 16-32 0 0 24c0 31 25 56 56 56 31 0 56-25 56-56l0-24-32 0 0-16 32 0 0-64-32 0 0-16 32 0 0-24c0-31-25-56-56-56-31 0-56 25-56 56z"/>
<glyph unicode="&#57448;" d="M0 0l512 0 0 512-512 0z m16 496l480 0 0-480-480 0z m120-64l-16 0 0-24-40 0 0-16 40 0 0-312 16 0 0 312 40 0 0 16-40 0z m256 0l-16 0 0-312-40 0 0-16 40 0 0-24 16 0 0 24 40 0 0 16-40 0z m-128 0l-16 0 0-168-40 0 0-16 40 0 0-168 16 0 0 168 40 0 0 16-40 0z"/>
<glyph unicode="&#57449;" d="M280-3l0 518-155-155-101 0 0-208 101 0z m-240 347l91 0 133 133 0-442-133 133-91 0z m434-10l-66-67-66 67-12-12 67-66-67-66 12-12 66 67 66-67 12 12-67 66 67 66z"/>
<glyph unicode="&#57450;" d="M368 192c-40 0-72-32-72-72 0-40 32-72 72-72 40 0 72 32 72 72l0 394-240-52 0-345c-13 17-33 27-56 27-40 0-72-32-72-72 0-40 32-72 72-72 40 0 72 32 72 72l0 250 208 44 0-201c-13 17-33 27-56 27z m-224-176c-31 0-56 25-56 56 0 31 25 56 56 56 31 0 56-25 56-56 0-31-25-56-56-56z m72 322l0 112 208 44 0-112z m152-274c-31 0-56 25-56 56 0 31 25 56 56 56 31 0 56-25 56-56 0-31-25-56-56-56z"/>
<glyph unicode="&#57451;" d="M248 72l0 266 160 48 0 129-176-53 0-345c-13 17-33 27-56 27-40 0-72-32-72-72 0-40 32-72 72-72 40 0 72 32 72 72z m0 378l144 43 0-95-144-43z m-128-378c0 31 25 56 56 56 31 0 56-25 56-56 0-31-25-56-56-56-31 0-56 25-56 56z"/>
<glyph unicode="&#57452;" d="M192 328l16 0 0-144-16 0z m104 0l16 0 0-144-16 0z m-40 184c-68 0-133-27-181-75-48-48-75-113-75-181 0-68 27-133 75-181 48-48 113-75 181-75 68 0 133 27 181 75 48 48 75 113 75 181 0 68-27 133-75 181-48 48-113 75-181 75z m170-426c-46-45-106-70-170-70-64 0-124 25-170 70-45 46-70 106-70 170 0 64 25 124 70 170 46 45 106 70 170 70 64 0 124-25 170-70 45-46 70-106 70-170 0-64-25-124-70-170z"/>
<glyph unicode="&#57453;" d="M208 344l0-176 14-6 114 88 0 12-114 88z m16-16l91-72-91-72z m32 184c-68 0-133-27-181-75-48-48-75-113-75-181 0-68 27-133 75-181 48-48 113-75 181-75 68 0 133 27 181 75 48 48 75 113 75 181 0 68-27 133-75 181-48 48-113 75-181 75z m170-426c-46-45-106-70-170-70-64 0-124 25-170 70-45 46-70 106-70 170 0 64 25 124 70 170 46 45 106 70 170 70 64 0 124-25 170-70 45-46 70-106 70-170 0-64-25-124-70-170z"/>
<glyph unicode="&#57454;" d="M336 117c-13 17-33 27-56 27-40 0-72-32-72-72 0-40 32-72 72-72 40 0 72 32 72 72l0 266 160 48 0 129-176-53z m-56-101c-31 0-56 25-56 56 0 31 25 56 56 56 31 0 56-25 56-56 0-31-25-56-56-56z m72 434l144 43 0-95-144-43z m-320-58l272 0 0-16-272 0z m0-80l272 0 0-16-272 0z m0-80l272 0 0-16-272 0z"/>
<glyph unicode="&#57455;" d="M140 112c51 0 92 41 92 92 0 51-41 92-92 92-51 0-92-41-92-92 0-51 41-92 92-92z m-67 56l31 0 0-31c-13 7-24 18-31 31z m47-37l0 37 40 0 0-37c-6-2-13-3-20-3-7 0-14 1-20 3z m0 53l0 40 40 0 0-40z m56-47l0 31 31 0c-7-13-18-24-31-31z m37 47l-37 0 0 40 37 0c2-6 3-13 3-20 0-7-1-14-3-20z m-6 56l-31 0 0 31c13-7 24-18 31-31z m-47 37l0-37-40 0 0 37c6 2 13 3 20 3 7 0 14-1 20-3z m-56-6l0-31-31 0c7 13 18 24 31 31z m-37-47l37 0 0-40-37 0c-2 6-3 13-3 20 0 7 1 14 3 20z m397 16l-200 0 0-136 200 0z m-16-120l-168 0 0 104 168 0z m16 184l-56 0 0-48 56 0z m-16-32l-24 0 0 16 24 0z m-56 32l-56 0 0-48 56 0z m-16-32l-24 0 0 16 24 0z m-56 32l-56 0 0-48 56 0z m-16-32l-24 0 0 16 24 0z m176 184l-448 0 0-104-32 0 0-296 512 0 0 296-32 0z m-16-16l0-16-416 0 0 16z m-416-32l416 0 0-56-416 0z m448-336l-480 0 0 264 480 0z"/>
<glyph unicode="&#57456;" d="M160 72c62 0 112 50 112 112 0 62-50 112-112 112-62 0-112-50-112-112 0-62 50-112 112-112z m-83 64l35 0 0-35c-15 8-27 20-35 35z m51-42l0 42 64 0 0-42c-10-4-21-6-32-6-11 0-22 2-32 6z m0 58l0 64 64 0 0-64z m80-51l0 35 35 0c-8-15-20-27-35-35z m42 51l-42 0 0 64 42 0c4-10 6-21 6-32 0-11-2-22-6-32z m-7 80l-35 0 0 35c15-8 27-20 35-35z m-51 42l0-42-64 0 0 42c10 4 21 6 32 6 11 0 22-2 32-6z m-80-7l0-35-35 0c8 15 20 27 35 35z m-42-51l42 0 0-64-42 0c-4 10-6 21-6 32 0 11 2 22 6 32z m322 80l-56 0 0-48 56 0z m-16-32l-24 0 0 16 24 0z m88 32l-56 0 0-48 56 0z m-16-32l-24 0 0 16 24 0z m-32-96c-26 0-48-22-48-48 0-26 22-48 48-48 26 0 48 22 48 48 0 26-22 48-48 48z m0-80c-18 0-32 14-32 32 0 15 10 27 24 31l0-23 16 0 0 23c14-4 24-16 24-31 0-18-14-32-32-32z m-336 288l-24 0 0 2 370 94-4 16-382-98 0-14-24 0 0-32-16 0 0-320 512 0 0 320-432 0z m-48-16l32 0 0-16-32 0z m464-320l-480 0 0 288 480 0z"/>
<glyph unicode="&#57457;" d="M256 512c-68 0-133-27-181-75-48-48-75-113-75-181 0-68 27-133 75-181 48-48 113-75 181-75 0 0 0 0 0 0l0 0c141 0 256 115 256 256 0 68-27 133-75 181-48 48-113 75-181 75z m0-496l0-8 0 8c0 0 0 0 0 0-64 0-124 25-170 70-45 46-70 106-70 170 0 64 25 124 70 170 46 45 106 70 170 70 64 0 124-25 170-70 45-46 70-106 70-170 0-132-104-240-240-240z m0 312c-40 0-72-32-72-72 0-40 32-72 72-72 40 0 72 32 72 72 0 40-32 72-72 72z m0-128c-31 0-56 25-56 56 0 31 25 56 56 56 31 0 56-25 56-56 0-31-25-56-56-56z m0-80l0 16c-66 0-120 54-120 120l-16 0c0-75 61-136 136-136z m0 272l0-16c66 0 120-54 120-120l16 0c0 75-61 136-136 136z m-176-136l-16 0c0-106 88-192 192-192l0 16c-96 0-176 79-176 176z m176 192l0-16c97 0 176-79 176-176l16 0c0 106-86 192-192 192z"/>
<glyph unicode="&#57458;" d="M0 0l512 0 0 512-512 0z m16 496l480 0 0-480-480 0z m400-112l32 0 0-227-44-22-4-7 0-32 12-7 48 24 4 7 0 344-48 0z m32-259l-32-16 0 14 32 16z m-16 323l16 0 0-48-16 0z m-212 32c-104 0-188-84-188-188 0-104 84-188 188-188 104 0 188 84 188 188 0 104-84 188-188 188z m0-360c-95 0-172 77-172 172 0 95 77 172 172 172 95 0 172-77 172-172 0-95-77-172-172-172z m0 228c-31 0-56-25-56-56 0-31 25-56 56-56 31 0 56 25 56 56 0 31-25 56-56 56z m0-96c-22 0-40 18-40 40 0 22 18 40 40 40 22 0 40-18 40-40 0-22-18-40-40-40z m-188-220l64 0 0 40-64 0z m16 24l32 0 0-8-32 0z m64-24l64 0 0 40-64 0z m16 24l32 0 0-8-32 0z"/>
<glyph unicode="&#57459;" d="M440 211l-42 43-12-13 56-57 12 0 56 57-12 12-42-42 0 181-392 0 0-16 376 0z m-384 90l0-181 392 0 0 16-376 0 0 165 42-43 12 13-56 57-12 0-56-57 12-12z"/>
<glyph unicode="&#57460;" d="M104 262l0-12 114-88 14 6 0 176-14 6z m112-78l-91 72 91 72z m48 78l0-12 114-88 14 6 0 176-14 6z m112-78l-91 72 91 72z m-120 328c-68 0-133-27-181-75-48-48-75-113-75-181 0-68 27-133 75-181 48-48 113-75 181-75 68 0 133 27 181 75 48 48 75 113 75 181 0 68-27 133-75 181-48 48-113 75-181 75z m170-426c-46-45-106-70-170-70-64 0-124 25-170 70-45 46-70 106-70 170 0 64 25 124 70 170 46 45 106 70 170 70 64 0 124-25 170-70 45-46 70-106 70-170 0-64-25-124-70-170z"/>
<glyph unicode="&#57461;" d="M194 298l12 12-83 82-123 0 0-16 117 0z m248 136l43-42-112 0-256-256-117 0 0-16 123 0 256 256 106 0-43-42 13-12 57 56 0 12-57 56z m0-256l43-42-106 0-77 78-12-12 83-82 112 0-43-42 13-12 57 56 0 12-57 56z"/>
<glyph unicode="&#57462;" d="M176 344l-8-8 0-160 8-8 160 0 8 8 0 160-8 8z m152-160l-144 0 0 144 144 0z m-72 328c-68 0-133-27-181-75-48-48-75-113-75-181 0-68 27-133 75-181 48-48 113-75 181-75 68 0 133 27 181 75 48 48 75 113 75 181 0 68-27 133-75 181-48 48-113 75-181 75z m170-426c-46-45-106-70-170-70-64 0-124 25-170 70-45 46-70 106-70 170 0 64 25 124 70 170 46 45 106 70 170 70 64 0 124-25 170-70 45-46 70-106 70-170 0-64-25-124-70-170z"/>
<glyph unicode="&#57463;" d="M0 80l512 0 0 352-512 0z m67 16l19 64 340 0 19-64z m-51 320l480 0 0-320-34 0-24 80-364 0-24-80-34 0z m112-96c-31 0-56-25-56-56 0-31 25-56 56-56 31 0 56 25 56 56 0 31-25 56-56 56z m0-96c-22 0-40 18-40 40 0 22 18 40 40 40 22 0 40-18 40-40 0-22-18-40-40-40z m256 96c-31 0-56-25-56-56 0-31 25-56 56-56 31 0 56 25 56 56 0 31-25 56-56 56z m0-96c-22 0-40 18-40 40 0 22 18 40 40 40 22 0 40-18 40-40 0-22-18-40-40-40z m104 176l-456 0 0-48 456 0z m-16-32l-424 0 0 16 424 0z m-272-136l112 0 0 64-112 0z m16 48l80 0 0-32-80 0z"/>
<glyph unicode="&#57464;" d="M312-3l0 518-155-155-101 0 0-208 101 0z m-240 347l91 0 133 133 0-442-133 133-91 0z m296-160l0-16c49 0 88 39 88 88 0 49-39 88-88 88l0-16c40 0 72-32 72-72 0-40-32-72-72-72z"/>
<glyph unicode="&#57465;" d="M272-3l0 518-155-155-101 0 0-208 101 0z m-240 347l91 0 133 133 0-442-133 133-91 0z m296-160l0-16c49 0 88 39 88 88 0 49-39 88-88 88l0-16c40 0 72-32 72-72 0-40-32-72-72-72z m0-96c93 0 168 75 168 168 0 93-75 168-168 168l0-16c84 0 152-68 152-152 0-84-68-152-152-152z"/>
<glyph unicode="&#57466;" d="M440 0l-368 0 0 376 368 0z m-352 16l336 0 0 344-336 0z m256 304l-16 0 0 104c0 40-32 72-72 72-40 0-72-32-72-72l0-104-16 0 0 104c0 49 39 88 88 88 49 0 88-39 88-88z"/>
<glyph unicode="&#57467;" d="M440 0l-368 0 0 376 368 0z m-352 16l336 0 0 344-336 0z m158 114l-12 0-56 56 12 12 50-51 98 99 12-12z m98 190l-16 0 0 104c0 40-32 72-72 72-40 0-72-32-72-72l0-104-16 0 0 104c0 49 39 88 88 88 49 0 88-39 88-88z"/>
<glyph unicode="&#57468;" d="M440 0l-368 0 0 376 368 0z m-352 16l336 0 0 344-336 0z m256 304l-16 0 0 104c0 40-32 72-72 72-40 0-72-32-72-72l0-104-16 0 0 104c0 49 39 88 88 88 49 0 88-39 88-88z m-32-200l-112 0c-20 0-32 12-32 32 0 10 9 28 26 31 7 25 32 49 62 49 34 0 60-21 64-49 16-4 24-21 24-31 0-20-12-32-32-32z m-112 48c-11 0-16-12-16-16 0-12 4-16 16-16l112 0c11 0 16 5 16 16 0 4-5 16-16 16l-8 0 0 8c0 26-25 40-48 40-23 0-44-22-48-42l-1-6z"/>
<glyph unicode="&#57469;" d="M262 98l-12 0-64 64 12 12 58-59 58 59 12-12z m-14 166l16 0 0-160-16 0z m192-264l-368 0 0 376 368 0z m-352 16l336 0 0 344-336 0z m256 304l-16 0 0 104c0 40-32 72-72 72-40 0-72-32-72-72l0-104-16 0 0 104c0 49 39 88 88 88 49 0 88-39 88-88z"/>
<glyph unicode="&#57470;" d="M440 0l-368 0 0 376 368 0z m-352 16l336 0 0 344-336 0z m96 168l144 0 0-16-144 0z m160 136l-16 0 0 104c0 40-32 72-72 72-40 0-72-32-72-72l0-104-16 0 0 104c0 49 39 88 88 88 49 0 88-39 88-88z"/>
<glyph unicode="&#57471;" d="M248 248l16 0 0-144-16 0z m-64-64l144 0 0-16-144 0z m256-184l-368 0 0 376 368 0z m-352 16l336 0 0 344-336 0z m256 304l-16 0 0 104c0 40-32 72-72 72-40 0-72-32-72-72l0-104-16 0 0 104c0 49 39 88 88 88 49 0 88-39 88-88z"/>
<glyph unicode="&#57472;" d="M288 96l-32 0c-41 0-72 42-72 80l16 0c0-30 24-64 56-64l32 0z m-18-29l-12 10 20 27-20 27 12 10 24-32 0-10z m74 109l-16 0c0 30-24 64-56 64l-32 0 0 16 32 0c41 0 72-42 72-80z m-86 35l-24 32 0 10 24 32 12-10-20-27 20-27z m182-211l-368 0 0 376 368 0z m-352 16l336 0 0 344-336 0z m256 304l-16 0 0 104c0 40-32 72-72 72-40 0-72-32-72-72l0-104-16 0 0 104c0 49 39 88 88 88 49 0 88-39 88-88z"/>
<glyph unicode="&#57473;" d="M440 0l-368 0 0 376 368 0z m-352 16l336 0 0 344-336 0z m118 222l112-112-12-12-112 112z m100 0l12-12-112-112-12 12z m38 82l-16 0 0 104c0 40-32 72-72 72-40 0-72-32-72-72l0-104-16 0 0 104c0 49 39 88 88 88 49 0 88-39 88-88z"/>
<glyph unicode="&#57474;" d="M232 144c-31 0-56 25-56 56 0 31 25 56 56 56 31 0 56-25 56-56 0-31-25-56-56-56z m0 96c-22 0-40-18-40-40 0-22 18-40 40-40 22 0 40 18 40 40 0 22-18 40-40 40z m38-66l64-64-12-12-64 64z m170-174l-368 0 0 376 368 0z m-352 16l336 0 0 344-336 0z m256 304l-16 0 0 104c0 40-32 72-72 72-40 0-72-32-72-72l0-104-16 0 0 104c0 49 39 88 88 88 49 0 88-39 88-88z"/>
<glyph unicode="&#57475;" d="M314 186l-58 59-58-59-12 12 64 64 12 0 64-64z m-66 70l16 0 0-160-16 0z m192-256l-368 0 0 376 368 0z m-352 16l336 0 0 344-336 0z m256 304l-16 0 0 104c0 40-32 72-72 72-40 0-72-32-72-72l0-104-16 0 0 104c0 49 39 88 88 88 49 0 88-39 88-88z"/>
<glyph unicode="&#57476;" d="M512 120l-512 0 0 272 512 0z m-496 16l480 0 0 240-480 0z m424 16l-368 0 0 8c0 18-14 32-32 32l-8 0 0 128 8 0c18 0 32 14 32 32l0 8 368 0 0-8c0-18 14-32 32-32l8 0 0-128-8 0c-18 0-32-14-32-32z m-353 16l338 0c3 20 19 36 39 39l0 98c-20 3-36 19-39 39l-338 0c-3-20-19-36-39-39l0-98c20-3 36-19 39-39z m169 16c-40 0-72 32-72 72 0 40 32 72 72 72 40 0 72-32 72-72 0-40-32-72-72-72z m0 128c-31 0-56-25-56-56 0-31 25-56 56-56 31 0 56 25 56 56 0 31-25 56-56 56z"/>
<glyph unicode="&#57477;" d="M432 104l-432 0 0 224 432 0z m-416 16l400 0 0 192-400 0z m496 64l-72 0 0 16 56 0 0 192-400 0 0-56-16 0 0 72 432 0z m-144-48l-296 0 0 8c0 12-4 24-32 24l-8 0 0 96 8 0c28 0 32 12 32 24l0 8 296 0 0-8c0-20 13-24 24-24l8 0 0-96-8 0c-11 0-24-4-24-24z m-281 16l266 0c2 20 16 29 31 31l0 66c-15 2-29 11-31 31l-266 0c-2-15-11-29-39-32l0-64c28-3 37-17 39-32z m129 16c-26 0-48 22-48 48 0 26 22 48 48 48 26 0 48-22 48-48 0-26-22-48-48-48z m0 80c-18 0-32-14-32-32 0-18 14-32 32-32 18 0 32 14 32 32 0 18-14 32-32 32z"/>
<glyph unicode="&#57478;" d="M422 32l-332 0-93 288 518 0z m-320 16l308 0 83 256-474 0z m67 427l14-6-64-160-14 6z m174 0l64-160-14-6-64 160z"/>
<glyph unicode="&#57479;" d="M422 32l-332 0-93 288 518 0z m-320 16l308 0 83 256-474 0z m67 427l14-6-64-160-14 6z m174 0l64-160-14-6-64 160z m-97-353l-12 0-56 56 12 12 50-51 98 99 12-12z"/>
<glyph unicode="&#57480;" d="M422 32l-332 0-93 288 518 0z m-320 16l308 0 83 256-474 0z m67 427l14-6-64-160-14 6z m174 0l64-160-14-6-64 160z m-31-355l-112 0c-20 0-32 12-32 32 0 10 9 28 26 31 7 25 32 49 62 49 34 0 60-21 64-49 16-4 24-21 24-31 0-20-12-32-32-32z m-112 48c-11 0-16-12-16-16 0-12 4-16 16-16l112 0c11 0 16 5 16 16 0 4-5 16-16 16l-8 0 0 8c0 26-25 40-48 40-23 0-44-22-48-42l-1-6z"/>
<glyph unicode="&#57481;" d="M422 32l-332 0-93 288 518 0z m-320 16l308 0 83 256-474 0z m67 427l14-6-64-160-14 6z m174 0l64-160-14-6-64 160z m-81-385l-12 0-64 64 12 12 58-59 58 59 12-12z m-14 166l16 0 0-160-16 0z"/>
</font>
</defs>
</svg>
